ML
     
  Уважаемый Гость!
Вы можете поддержать проект и зарегистрироваться у наших партнеров - онлайн-стратегия MyLands. При регистрации в игре Вы получите код, который сможете активировать после регистрации на pirat.ca и получить 1000 дублонов.

Ваш код:
500cb7bd8d2cec9a8aba647a87ce41c4b76f06bd
 
     

Тень (Надежда Кошеверова) [1971 г., драма, мелодрама, комедия,сказка для взрослых, DVDRip]

Ответить на тему
 
Автор
Сообщение

Пост 18-Ноя-2011 21:56

[Q] 

kufre

Корсар

Тень
Год выпуска: 1971
Жанр: драма, мелодрама, комедия,сказка для взрослых
Продолжительность: 01:26:13
Режиссер: Надежда Кошеверова
В ролях: Олег Даль, Владимир Этуш, Сергей Филиппов, Зиновий Гердт, Людмила Гурченко, Андрей Миронов, Марина Неелова, Анастасия Вертинская, Георгий Вицин
Описание: Cмешная и мудрая история о борьбе умного и доброго Ученого с его темной ипостасью — Тенью. Победу в этой борьбе не может одержать ни Светлое, ни Темное, отчего история становится лишь более правдивой и жизненной.
Формат : AVI
Формат/Информация : Audio Video Interleave
Размер файла : 1,37 Гбайт
Продолжительность : 1 ч. 26 м.
Общий поток : 2267 Кбит/сек
Программа кодирования : VirtualDubModRus 1.5.10.2 (build 2542/release)
Библиотека кодирования : VirtualDubMod build 2542/release
Видео
Идентификатор : 0
Формат : MPEG-4 Visual
Профиль формата : Advanced [email protected]
Параметр BVOP формата : 1
Параметр QPel формата : Нет
Параметр GMC формата : Без точки перехода
Параметр матрицы формата : Default (MPEG)
Режим смешивания : Сжатый битовый поток
Идентификатор кодека : XVID
Идентификатор кодека/Подсказка : XviD
Продолжительность : 1 ч. 26 м.
Битрейт : 1809 Кбит/сек
Ширина : 720 пикс.
Высота : 336 пикс.
Соотношение сторон : 2,2:1
Частота кадров : 25,000 кадр/сек
Цветовое пространство : YUV
Подвыборка цветности : 4:2:0
Битовая глубина : 8 бит
Тип развёртки : Прогрессивная
Метод сжатия : С потерями
Бит/(Пиксели*Кадры) : 0.299
Размер потока : 1,09 Гбайт (80%)
Библиотека кодирования : XviD 1.2.0.dev47 (UTC 2006-11-01)
Аудио
Идентификатор : 1
Формат : AC-3
Формат/Информация : Audio Coding 3
Расширение режима : CM (complete main)
Идентификатор кодека : 2000
Продолжительность : 1 ч. 26 м.
Вид битрейта : Постоянный
Битрейт : 448 Кбит/сек
Каналы : 6 каналов
Расположение каналов : Front: L C R, Side: L R, LFE
Частота : 48,0 КГц
Битовая глубина : 16 бит
Метод сжатия : С потерями
Задержка видео : 146 мс.
Размер потока : 276 Мбайт (20%)
Выравнивание : Разделение по промежуткам
Продолжительность промежутка : 40 мс. (1,00 видеокадр)
Время предзагрузки промежутка : 500 ms
Источник/Качество: DVDRip
Формат: AVI
Видео кодек: XviD
Аудио кодек: AC3
Видео: 720x336 (2.14:1), 25 fps, XviD MPEG-4 ~1808 kbps avg, 0.30 bit/pixel
Аудио: 48 kHz, AC3 Dolby Digital, 3/2 (L,C,R,l,r) + LFE ch, ~448 kbps





Download / Скачать

Хотите скачать бесплатно? Зарегистрируйтесь на сайте (ссылка на регистрацию). Pirat.ca - самый быстрый торрент трекер в рунете!

Как скачивать  ·   Что такое торрент  ·   Рейтинг и ограничения

Пост 19-Ноя-2011 08:51 (спустя 10 часов)

Топик был перенесен из форума Наше Кино в форум Советское кино

Skinwalker
 

UncleFather

Легенда

Пост 24-Мар-2013 21:04 (спустя 1 год 4 месяца)

[Q] 


_________________
Одни боялись Пью, другие - Билли Бонса, а меня... меня боялся сам Флинт
[Профиль]  [ЛС] 

vinylovi4

Гроза морей

Пост 12-Июл-2013 00:33 (спустя 3 месяца 18 дней)

[Q] 

фильм просто супер! спасибо
[Профиль]  [ЛС] 

NektoWaso

Флибустьер

Пост 04-Ноя-2013 08:44 (спустя 3 месяца 23 дня)

[Q] 

замечательное кино! всем рекомендую! :)
[Профиль]  [ЛС] 
Показать сообщения:    
Ответить на тему

Текущее время: Сегодня 01:45

Часовой пояс: GMT + 4



Вы не можете начинать темы
Вы не можете отвечать на сообщения
Вы не можете редактировать свои сообщения
Вы не можете удалять свои сообщения
Вы не можете голосовать в опросах
Вы не можете прикреплять файлы к сообщениям
Вы не можете скачивать файлы

▼ Вниз