ML
     
  Уважаемый Гость!
Вы можете поддержать проект и зарегистрироваться у наших партнеров - онлайн-стратегия MyLands. При регистрации в игре Вы получите код, который сможете активировать после регистрации на pirat.ca и получить 1000 дублонов.

Ваш код:
b70663c760e7cd2521b8e123786cdd788200e3bd
 
     

Однажды двадцать лет спустя (Юрий Егоров) [1980 г., Лирическая комедия, DVDRip]

Ответить на тему
 
Автор
Сообщение

Пост 19-Ноя-2011 21:02

[Q] 

kufre

Корсар

Однажды двадцать лет спустя
Год выпуска: 1980
Жанр: Лирическая комедия
Продолжительность: 01:13:35
Режиссер: Юрий Егоров
В ролях: Наталья Гундарева, Виктор Проскурин, Евгений Лазарев, Олег Ефремов, Валентина Титова, Александр Потапов, Игорь Ясулович, Валентин Смирнитский, Ольга Гобзева, Елена Чухрай, Андрей Юренев, Инга Будкевич, Марина Яковлева, Борис Александров, Радий Афанасьев, Александр Булычев, Ольга Григорьева, Михаил Еремеев, Нина Емельянова, Николай Ковальский, Клавдия Козленкова, Александр Кузьмичев, Михаил Кочин, Евгений Красавцев, Алексей Миронов, Александр Михайлушкин, Юрий Рычков, Леонид Якубович, Вадик Князев, Сережа Белов, Таня Назарова, Алеша Ясулович, Даша Мальчевская, Максим Пучков, Таня Бурвикова, Лена Борзунова, Костя Сиваев, Витя Плаксин, Дима Моряшев, Оля Астапенко, Маша Пискунова, Наташа Земцова
Описание: Выпускники одной из московских школ через двадцать лет после окончания собираются вместе. Каждого просят ответить на два вопроса: `Что вы уже сделали?` и `Чего еще в жизни ждете?`. Вместе с бывшими однокашниками пытается найти ответы на поставленные вопросы и главная героиня фильма — многодетная мать Надя Круглова.
Счастье? Оно есть!
Знаете, бывает, что вы приходите в магазин, а там продавец встречает вас с улыбкой на лице, искренней улыбкой, дружелюбной. И настроение ваше поднимается. Этот фильм — улыбка.
Это фильм — как побег, пробившийся через асфальт, это луч солнца среди туч, это как подснежник, первый весенний день.
Посмотрите этот фильм, и внутри вас распустится цветок, не роза, а одуванчик, василек, ромашка. Согрейтесь этим фильмов.
Очень хочется, чтобы такого кино было больше. Жизнеутверждающий, дарящий счастье фильм.
Казалось бы, весьма простые, где-то даже наивные кадры, но в них столько света и тепла! Столько искренности, человеколюбия, добра.
Впервые смотрю фильм, при просмотре которого невольно наворачиваются слезы… от счастья! Фантастика!
Простые житейские мудрости, искренность отношений, море оптимизма и позитива. Ни капли лишнего.
А чего вы дальше хотите от жизни? Лично я — еще раз посмотреть этот фильм. Прямо сейчас. И он мне поможет понять, чего я уже достиг, и чего я хочу еще. Уверен, поможет он и вам.
Безумно влюбленный в эту картину, ставлю
10 из 10
Формат : AVI
Формат/Информация : Audio Video Interleave
Профиль формата : OpenDML
Настройки формата : rec
Размер файла : 1,37 Гбайт
Продолжительность : 1 ч. 13 м.
Общий поток : 2657 Кбит/сек
Программа кодирования : AVI-Mux GUI 1.17.7, Aug 8 2006 20:59:17
Видео
Идентификатор : 0
Формат : MPEG-4 Visual
Параметр BVOP формата : 1
Параметр QPel формата : Нет
Параметр GMC формата : Без точки перехода
Параметр матрицы формата : Default (H.263)
Режим смешивания : Сжатый битовый поток
Идентификатор кодека : DX50
Идентификатор кодека/Подсказка : DivX 5
Продолжительность : 1 ч. 13 м.
Битрейт : 2459 Кбит/сек
Ширина : 720 пикс.
Высота : 320 пикс.
Соотношение сторон : 2,25:1
Частота кадров : 25,000 кадр/сек
Цветовое пространство : YUV
Подвыборка цветности : 4:2:0
Битовая глубина : 8 бит
Тип развёртки : Прогрессивная
Метод сжатия : С потерями
Бит/(Пиксели*Кадры) : 0.427
Размер потока : 1,26 Гбайт (93%)
Библиотека кодирования : DivX 5.2.1 (WaffleDay) (UTC 2004-09-08)
Аудио
Идентификатор : 1
Формат : AC-3
Формат/Информация : Audio Coding 3
Расширение режима : CM (complete main)
Идентификатор кодека : 2000
Продолжительность : 1 ч. 13 м.
Вид битрейта : Постоянный
Битрейт : 192 Кбит/сек
Каналы : 2 канала
Расположение каналов : Front: L R
Частота : 48,0 КГц
Битовая глубина : 16 бит
Метод сжатия : С потерями
Размер потока : 101 Мбайт (7%)
Выравнивание : Соединение по промежуткам
Продолжительность промежутка : 64 мс. (1,60 видеокадра)
Время предзагрузки промежутка : 256 ms
Источник/Качество: DVDRip
Формат: AVI
Видео кодек: DivX
Аудио кодек: AC3
Видео: 720x320 (2.25:1), 25 fps, DivX Codec 5.2.1 build 1328 ~2457 kbps avg, 0.43 bit/pixel
Аудио: 48 kHz, AC3 Dolby Digital, 2/0 (L,R) ch, ~192 kbps






-
Download / Скачать

Хотите скачать бесплатно? Зарегистрируйтесь на сайте (ссылка на регистрацию). Pirat.ca - самый быстрый торрент трекер в рунете!

Как скачивать  ·   Что такое торрент  ·   Рейтинг и ограничения



Последний раз редактировалось: kufre (2012-04-28 12:30), всего редактировалось 3 раз(а)

Пост 19-Ноя-2011 21:05 (спустя 2 минуты)

Топик был перенесен из форума Наше Кино в форум Советское кино

Skinwalker
 

pashganchik

Лоцман

Пост 21-Ноя-2011 13:41 (спустя 1 день 16 часов)

[Q] 

Спасибо за хороший фильм!))
[Профиль]  [ЛС] 

kivi_lip

Лоцман

Пост 20-Янв-2012 22:13 (спустя 1 месяц 29 дней)

[Q] 

Отличный фильм!!! Спасибо!!!
[Профиль]  [ЛС] 

abc7

Гроза морей

464

Пост 06-Фев-2012 18:22 (спустя 16 дней)

[Q] 

[Профиль]  [ЛС] 

Владимир-24

Штурман

Пост 16-Янв-2013 10:58 (спустя 11 месяцев 9 дней)

[Q] 

Фильм конечно для души, посмотришь и настроение подымается. Супер!!!
[Профиль]  [ЛС] 

UncleFather

Легенда

Пост 24-Мар-2013 20:59 (спустя 2 месяца 8 дней)

[Q] 


_________________
Одни боялись Пью, другие - Билли Бонса, а меня... меня боялся сам Флинт
[Профиль]  [ЛС] 
Показать сообщения:    
Ответить на тему

Текущее время: Сегодня 00:20

Часовой пояс: GMT + 4



Вы не можете начинать темы
Вы не можете отвечать на сообщения
Вы не можете редактировать свои сообщения
Вы не можете удалять свои сообщения
Вы не можете голосовать в опросах
Вы не можете прикреплять файлы к сообщениям
Вы не можете скачивать файлы

▼ Вниз