ML
     
  Уважаемый Гость!
Вы можете поддержать проект и зарегистрироваться у наших партнеров - онлайн-стратегия MyLands. При регистрации в игре Вы получите код, который сможете активировать после регистрации на pirat.ca и получить 1000 дублонов.

Ваш код:
6f9ab67d502902cc72a06c406977ddb589b7f39d
 
     

Акселератка (Алексей Коренев) [1987 г., комедия, криминал, DVDRip]

Ответить на тему
 
Автор
Сообщение

Пост 19-Ноя-2011 22:48

[Q] 

kufre

Корсар

Акселератка
Год выпуска: 1987
Жанр: комедия, криминал
Продолжительность: 01:22:31
Режиссер: Алексей Коренев
В ролях: Ирина Шмелева, Никита Михайловский, Роман Филиппов, Галина Польских, Петр Меркурьев, Игорь Кваша, Александр Потапов, Василий Бочкарев, Андрей Гусев, Сергей Мигицко, Александр Постников, Виктор Раков, Михаил Голубович, Александр Андрусенко, Лариса Барабанова, Г. Барков, Михаил Бычков, И. Горохова, П. Денисов, Галина Казакова, Дмитрий Калачев, Нина Маслова, Александр Пятков, Алика (Алла) Смехова, Мирча Соцки-Войническу, Александр Толубаев, Виктор Филиппов, Михаил (Мамука) Херхеулидзе, Сергей Бирюлин, Юрий Думчев
Описание: Юная героиня, мечтающая работать в угрозыске, организует частное расследование и внедряется в шайку автоугонщиков. При этом она едва не срывает операцию профессиональных сыщиков — зато, похоже, находит свою любовь.
Формат : AVI
Формат/Информация : Audio Video Interleave
Размер файла : 1,09 Гбайт
Продолжительность : 1 ч. 22 м.
Общий поток : 1886 Кбит/сек
Программа кодирования : VirtualDubMod 1.5.10.2 (build 2540/release)
Библиотека кодирования : VirtualDubMod build 2540/release
Видео
Идентификатор : 0
Формат : MPEG-4 Visual
Параметр BVOP формата : Нет
Параметр QPel формата : Нет
Параметр GMC формата : Без точки перехода
Параметр матрицы формата : Default (H.263)
Идентификатор кодека : XVID
Идентификатор кодека/Подсказка : XviD
Продолжительность : 1 ч. 22 м.
Битрейт : 1748 Кбит/сек
Ширина : 704 пикс.
Высота : 304 пикс.
Соотношение сторон : 2,35:1
Частота кадров : 25,000 кадр/сек
Цветовое пространство : YUV
Подвыборка цветности : 4:2:0
Битовая глубина : 8 бит
Тип развёртки : Прогрессивная
Метод сжатия : С потерями
Бит/(Пиксели*Кадры) : 0.327
Размер потока : 1,01 Гбайт (93%)
Библиотека кодирования : XviD 0.0.03 (UTC 2002-12-09)
Аудио
Идентификатор : 1
Формат : MPEG Audio
Версия формата : Version 1
Профиль формата : Layer 3
Идентификатор кодека : 55
Идентификатор кодека/Подсказка : MP3
Продолжительность : 1 ч. 22 м.
Вид битрейта : Постоянный
Битрейт : 128 Кбит/сек
Каналы : 1 канал
Частота : 48,0 КГц
Метод сжатия : С потерями
Размер потока : 75,5 Мбайт (7%)
Выравнивание : Соединение по промежуткам
Продолжительность промежутка : 40 мс. (1,00 видеокадр)
Время предзагрузки промежутка : 504 ms
Источник/Качество: DVDRip
Формат: AVI
Видео кодек: XviD
Аудио кодек: MP3
Видео: 704x304 (2.32:1), 25 fps, XviD build 3 ~1748 kbps avg, 0.33 bit/pixel
Аудио: 48 kHz, MPEG Layer 3, 1 ch, ~128.00 kbps avg





Download / Скачать

Хотите скачать бесплатно? Зарегистрируйтесь на сайте (ссылка на регистрацию). Pirat.ca - самый быстрый торрент трекер в рунете!

Как скачивать  ·   Что такое торрент  ·   Рейтинг и ограничения

Пост 20-Ноя-2011 08:11 (спустя 9 часов)

Топик был перенесен из форума Наше Кино в форум Советское кино

Skinwalker
 

CHARLI2236

1089

Пост 27-Ноя-2011 12:28 (спустя 7 дней)

[Q] 

СПАСИБО

_________________
[Профиль]  [ЛС] 

Anatoliy100

Лоцман

Пост 14-Апр-2012 13:57 (спустя 4 месяца 17 дней)

[Q] 

Хороший фильм. Помню билеты на него на третий день показа только достал.
[Профиль]  [ЛС] 

abc7

Гроза морей

464

Пост 27-Апр-2012 01:01 (спустя 12 дней)

[Q] 

[Профиль]  [ЛС] 

вадян78

Лоцман

Пост 11-Май-2012 22:44 (спустя 14 дней)

[Q] 

СПАСИО.КЛАСНЫЙ ФИЛЬМ
[Профиль]  [ЛС] 

ivan.tratil 67

Корсар

Пост 01-Янв-2013 21:38 (спустя 7 месяцев 20 дней)

[Q] 

[Профиль]  [ЛС] 
Показать сообщения:    
Ответить на тему

Текущее время: Сегодня 16:32

Часовой пояс: GMT + 4



Вы не можете начинать темы
Вы не можете отвечать на сообщения
Вы не можете редактировать свои сообщения
Вы не можете удалять свои сообщения
Вы не можете голосовать в опросах
Вы не можете прикреплять файлы к сообщениям
Вы не можете скачивать файлы

▼ Вниз