ML
     
  Уважаемый Гость!
Вы можете поддержать проект и зарегистрироваться у наших партнеров - онлайн-стратегия MyLands. При регистрации в игре Вы получите код, который сможете активировать после регистрации на pirat.ca и получить 1000 дублонов.

Ваш код:
8b752b428cf60a012c159dcae592cd1392170115
 
     

Гараж (Эльдар Рязанов) [1979 г., драма, комедия, DVDRip]

Ответить на тему
 
Автор
Сообщение

Пост 19-Ноя-2011 23:05

[Q] 

kufre

Корсар

Гараж
Год выпуска: 1979
Жанр: драма, комедия
Продолжительность: 01:35:00
Режиссер: Эльдар Рязанов
В ролях: Валентин Гафт, Семен Фарада, Вячеслав Невинный, Игорь Костолевский, Лия Ахеджакова, Андрей Мягков, Эльдар Рязанов, Георгий Бурков, Борислав Брондуков, Леонид Марков, Петр Щербаков, Александр Пятков, Анастасия Вознесенская, Ия Саввина, Мария Виноградова, Михаил Кокшенов, Глеб Стриженов, Светлана Немоляева, Вадим Захарченко, Ольга Остроумова, Дмитрий Орловский, Наталья Гурзо
Описание: На заседании гаражного кооператива предстоит выбрать четырех «крайних», которые должны сами отказаться от будущего собственного гаража. Что чувствуешь, голосуя за список отверженных, в котором нет твоей фамилии? Неловкость и облегчение. А если фамилия есть? Смирись, ведь все уже согласовано. Но произошел бунт…
Доп. информация: В момент, когда героиня Лии Ахеджаковой произносит фразу «Ну я, я заперла дверь!», за ее спиной стоит Костолевский в коричневом пиджаке. А когда через мгновение он говорит «Сильна малышка», Костолевский одет в светлый плащ.
Формат : AVI
Формат/Информация : Audio Video Interleave
Размер файла : 1,37 Гбайт
Продолжительность : 1 ч. 35 м.
Общий поток : 2051 Кбит/сек
Название фильма : Гараж
Режиссёр : Milky Man
Жанр : Comedy
Программа кодирования : VirtualDubMod 1.5.10.1 (build 2366/release)
Формат оригинала/Имя : Movie
Видео
Идентификатор : 0
Формат : MPEG-4 Visual
Параметр BVOP формата : 1
Параметр QPel формата : Нет
Параметр GMC формата : Без точки перехода
Параметр матрицы формата : Default (H.263)
Режим смешивания : Сжатый битовый поток
Идентификатор кодека : DX50
Идентификатор кодека/Подсказка : DivX 5
Продолжительность : 1 ч. 35 м.
Битрейт : 1595 Кбит/сек
Ширина : 576 пикс.
Высота : 432 пикс.
Соотношение сторон : 4:3
Частота кадров : 23,976 кадр/сек
Цветовое пространство : YUV
Подвыборка цветности : 4:2:0
Битовая глубина : 8 бит
Тип развёртки : Прогрессивная
Метод сжатия : С потерями
Бит/(Пиксели*Кадры) : 0.267
Размер потока : 1,06 Гбайт (78%)
Библиотека кодирования : DivX 5.2.1 (WaffleDay) (UTC 2004-09-08)
Аудио
Идентификатор : 1
Формат : AC-3
Формат/Информация : Audio Coding 3
Расширение режима : CM (complete main)
Идентификатор кодека : 2000
Продолжительность : 1 ч. 35 м.
Вид битрейта : Постоянный
Битрейт : 448 Кбит/сек
Каналы : 6 каналов
Расположение каналов : Front: L C R, Side: L R, LFE
Частота : 48,0 КГц
Битовая глубина : 16 бит
Метод сжатия : С потерями
Размер потока : 306 Мбайт (22%)
Выравнивание : Разделение по промежуткам
Продолжительность промежутка : 50 мс. (1,20 видеокадр)
Время предзагрузки промежутка : 50 ms
Источник/Качество: DVDRip
Формат: AVI
Видео кодек: DivX
Аудио кодек: AC3
Видео: 576x432 (1.33:1), 23.976 fps, DivX Codec 5.2.1 build 1328 ~1594 kbps avg, 0.27 bit/pixel
Аудио: 48 kHz, AC3 Dolby Digital, 3/2 (L,C,R,l,r) + LFE ch, ~448 kbps





Download / Скачать

Хотите скачать бесплатно? Зарегистрируйтесь на сайте (ссылка на регистрацию). Pirat.ca - самый быстрый торрент трекер в рунете!

Как скачивать  ·   Что такое торрент  ·   Рейтинг и ограничения

Пост 20-Ноя-2011 07:59 (спустя 8 часов)

Топик был перенесен из форума Наше Кино в форум Советское кино

Skinwalker
 

Nightwalker

Гроза морей

Пост 07-Окт-2012 21:53 (спустя 10 месяцев 17 дней)

[Q] 

Классика! Спасибо!

_________________
Хотя и сладостен азарт, по сразу двум идти дорогам, нельзя одной колодой карт, играть и с Дьяволом и Богом.
[Профиль]  [ЛС] 

Snake

Штурман

Пост 27-Окт-2012 15:54 (спустя 19 дней)

[Q] 

[Профиль]  [ЛС] 

LORD OR

Корсар

Пост 12-Ноя-2012 21:46 (спустя 16 дней)

[Q] 

[Профиль]  [ЛС] 

Pesok

Гроза морей

Пост 16-Ноя-2012 08:28 (спустя 3 дня)

[Q] 


_________________
[Профиль]  [ЛС] 

Alex2k13

Пост 02-Дек-2013 09:50 (спустя 1 год)

[Q] 

Поддержу фильм.
Раньше ради гаражей люди ночи не спали, а сейчас их сносят. Вот и мой сносить собираются ac Уродская власть.

_________________
[Профиль]  [ЛС] 

avr7342

Лоцман

Пост 21-Мар-2014 18:41 (спустя 3 месяца 19 дней)

[Q] 

С этого фильма начался развал системы!
[Профиль]  [ЛС] 

Trianon777

Морской Волк

Пост 20-Июл-2014 21:20 (спустя 3 месяца 30 дней)

[Q] 

СПАСИБО! Одна из лучших комедий мэтра Э.Рязанова! Такой кино-шедевр должен быть в коллекции у всех.
...В силу непредвиденных обстоятельств правлению гаражного кооператива приходится сокращать число пайщиков. Но кого именно? И по каким критериям? Сотрудникам некого НИИ приходится изо всех сил бороться за место под солнцем... И в этой борьбе у многих просыпаются поистине звериные инстинкты...
Наглухо закрыв своих персонажей в здании зоологического музея, Рязанов дал каждому из них эффектную "выходную арию", превосходно обыграв экранные имиджи популярных актеров... Так скромное собрание членов кооператива стало у Э.Рязанова символом общества, разъедаемого противоречиями между богатыми и бедными, "блатными" и "упакованными", "партийными" и "б/п", "заслуженными","ветеранами", "участниками", "начальниками" и прочими обыкновенными гражданами. Общества тотального дефицита и тотальной демагогии... Не удивительно, что "Гараж" был весьма кисло принят тогдашним руководством. А в некоторых "союзных республиках" и вовсе не демонстрировался...
В какой-то статье прочитал, что замысел "Гаража" появился после того, как самому Эльдару Рязанову пришлось присутствовать на заседании гаражно-строительного кооператива, в ходе которого нескольких самых беззащитных владельцев лишили боксов при молчаливой поддержке большинства. И режиссер вел себя на собрании не лучшим образом. Потому фильм, можно сказать, его попытка загладить свою личную вину.
Прекрасный актерский ансамбль! Злободневный по сей день сюжет! Неподражаемые "образы" и "образины"! Отличная работа актеров и режиссера!
10 баллов из 10. Рекомендуется для просмотра всем!
[Профиль]  [ЛС] 
Показать сообщения:    
Ответить на тему

Текущее время: Сегодня 06:18

Часовой пояс: GMT + 4



Вы не можете начинать темы
Вы не можете отвечать на сообщения
Вы не можете редактировать свои сообщения
Вы не можете удалять свои сообщения
Вы не можете голосовать в опросах
Вы не можете прикреплять файлы к сообщениям
Вы не можете скачивать файлы

▼ Вниз