ML
     
  Уважаемый Гость!
Вы можете поддержать проект и зарегистрироваться у наших партнеров - онлайн-стратегия MyLands. При регистрации в игре Вы получите код, который сможете активировать после регистрации на pirat.ca и получить 1000 дублонов.

Ваш код:
500cb7bd8d2cec9a8aba647a87ce41c4b76f06bd
 
     

Торпедоносцы (Семен Аранович) [1983 г., Военная драма, DVDRip]

Ответить на тему
 
Автор
Сообщение

Пост 20-Ноя-2011 06:13

[Q] 

hevard

Гроза морей

Торпедоносцы
Год выпуска: 1983
Жанр: Военная драма
Продолжительность: 01:30:24
Режиссер: Семен Аранович
В ролях: Белобров - Родион Нахапетов
Дмитренко - Станислав Садальский
Черепец- Алексей Жарков
Гаврилов - Андрей Болтнев
Маруся - Татьяна Кравченко
Шура - Вера Глаголева
Настя - Надежда Лукашевич
Юрий Дуванов, Всеволод Шиловский, Юрий Кузнецов, Александр Филиппенко, Эдуард Володарский, Е. Артемьев, А. Сирин, Митя Михайлов.
Описание: В небольшой поселок на берегу Баренцева моря, где расположена эскадрилья авиаторпедоносцев, возвращается после госпиталя летчик Белобров. И узнает, что погиб его друг, у которого осталась молодая жена, в которую он сам влюблен. Возможно ли счастье для двоих, когда при каждом боевом вылете шансов вернуться меньше, чем погибнуть...-Источник/Качество: DVDRip
Видео кодек: DivX
Аудио кодек: AC3
Видео: 720x544 (1.32:1), 25 fps, DivX Codec 6.8.3 ~2116 kbps avg, 0.22 bit/pixel
Аудио: 48 kHz, AC3 Dolby Digital, 2/0 (L,R) ch, ~192 kbps
General
Complete name : Торпедоносцы.avi
Format : AVI
Format/Info : Audio Video Interleave
File size : 1.46 GiB
Duration : 1h 30mn
Overall bit rate : 2 318 Kbps
Writing application : VirtualDubModRus 1.5.10.2 (build 2542/release)
Writing library : VirtualDubMod build 2542/release
Video
ID : 0
Format : MPEG-4 Visual
Format settings, BVOP : 1
Format settings, QPel : No
Format settings, GMC : No warppoints
Format settings, Matrix : Default (H.263)
Muxing mode : Packed bitstream
Codec ID : DX50
Codec ID/Hint : DivX 5
Duration : 1h 30mn
Bit rate : 2 116 Kbps
Width : 720 pixels
Height : 544 pixels
Display aspect ratio : 4:3
Frame rate : 25.000 fps
Color space : YUV
Chroma subsampling : 4:2:0
Bit depth : 8 bits
Scan type : Progressive
Compression mode : Lossy
Bits/(Pixel*Frame) : 0.216
Stream size : 1.34 GiB (91%)
Writing library : DivX 6.8.3-6.8.4 (UTC 2008-06-07)
Audio
ID : 1
Format : AC-3
Format/Info : Audio Coding 3
Mode extension : CM (complete main)
Codec ID : 2000
Duration : 1h 30mn
Bit rate mode : Constant
Bit rate : 192 Kbps
Channel(s) : 2 channels
Channel positions : Front: L R
Sampling rate : 48.0 KHz
Bit depth : 16 bits
Compression mode : Lossy
Stream size : 124 MiB (8%)
Alignment : Aligned on interleaves
Interleave, duration : 40 ms (1.00 video frame)
Interleave, preload duration : 512 ms
-



-
Download / Скачать

Хотите скачать бесплатно? Зарегистрируйтесь на сайте (ссылка на регистрацию). Pirat.ca - самый быстрый торрент трекер в рунете!

Как скачивать  ·   Что такое торрент  ·   Рейтинг и ограничения

Пост 20-Ноя-2011 07:52 (спустя 1 час 39 минут)

Топик был перенесен из форума Наше Кино в форум Советское кино

Skinwalker
 

ficus42

Корсар

Пост 13-Янв-2012 18:07 (спустя 1 месяц 23 дня)

[Q] 

Будем посмотреть.
[Профиль]  [ЛС] 

dimkoba

35103

Пост 17-Янв-2012 21:42 (спустя 4 дня)

[Q] 

спс надо как нибудь посмотреть

_________________
[Профиль]  [ЛС] 

MakAVP

Морской Волк

18

Пост 14-Фев-2012 18:59 (спустя 27 дней)

[Q] 

Надо посмотреть, что-то не видел этот ФИЛЬМ.

_________________

[Профиль]  [ЛС] 

Фисташка

Пост 15-Авг-2012 12:12 (спустя 6 месяцев)

[Q] 

посмотрим ! спасибо!.
[Профиль]  [ЛС] 

rotex56

Штурман

18

Пост 09-Ноя-2012 01:44 (спустя 2 месяца 24 дня)

[Q] 

Посмотрим, спасибо.
[Профиль]  [ЛС] 

LORD OR

Корсар

Пост 12-Ноя-2012 21:37 (спустя 3 дня)

[Q] 

[Профиль]  [ЛС] 
Показать сообщения:    
Ответить на тему

Текущее время: Сегодня 01:49

Часовой пояс: GMT + 4



Вы не можете начинать темы
Вы не можете отвечать на сообщения
Вы не можете редактировать свои сообщения
Вы не можете удалять свои сообщения
Вы не можете голосовать в опросах
Вы не можете прикреплять файлы к сообщениям
Вы не можете скачивать файлы

▼ Вниз