ML
     
  Уважаемый Гость!
Вы можете поддержать проект и зарегистрироваться у наших партнеров - онлайн-стратегия MyLands. При регистрации в игре Вы получите код, который сможете активировать после регистрации на pirat.ca и получить 1000 дублонов.

Ваш код:
a6d1ef7ff63e237add5a4c8b21d8aa937c5e9b4b
 
     

Евдокия (Татьяна Лиознова) [1961 г., драма, семейный, DVDRip]

Ответить на тему
 
Автор
Сообщение

Пост 20-Ноя-2011 16:44

[Q] 

kufre

Корсар

Евдокия
Год выпуска: 1961
Жанр: драма, семейный
Продолжительность: 01:40:29
Режиссер: Татьяна Лиознова
В ролях: Людмила Хитяева, Николай Лебедев, Лидия Королева, Иван Рыжов, Наталья Защипина, Валентин Зубков, Вера Алтайская, Елена Максимова, Владимир Ивашов, Виктор Колпаков, Петр Константинов, Клавдия Хабарова, Ольга Наровчатова, Алевтина Румянцева, Валентина Беляева, Александр Барсов, Евгений Ануфриев, Петр Савин, Георгий Шаповалов.
Описание: В небольшом провинциальном городке живут рабочий по имени Евдоким и его жена — Евдокия. Своих детей у них нет, они воспитывают приемных.
Их жизнь может показаться на первый взгляд незамысловатой, обыденной — однако на самом деле она полна сильных страстей, ярких и важных событий, заставляющих глубоко сопереживать героям
Доп. информация: Съёмки фильма проходили в Туле и лента ярко демонстрирует быт и культуру Тулы того времени.
Рецензия на Кинопоиске:
Эта история об одной простой женщине, простой женщине и ее детях (с)
Я люблю советские фильмы. Они всегда светлые и добрые.
Вот например «Евдокия».
Этот фильм рассказывает историю о жизни простой советской семьи Чернышевых, в которой далеко не все просто, как кажется на первый взгляд. Дело в том, что все дети в этой семье — приемные. Ждете бурных страстей и воплей на тему» Мама, как же так! Ты мне не родная?»
Не дождетесь. Здесь их просто нет. Потому что это- советский фильм. Отношения в этой семье простые и открытые. От их жизни веет покоем и теплом, хотя время, в которое они жили, далеко таким не было.
Этот фильм не зря крутят в День Матери. Ни в одном из советских фильмов я еще не видела настолько четкой темы материнства. Главная героиня Евдокия — женщина простая и неграмотная, но, на мой взгляд, она идеал женщины-матери. Ее забота о приемных детях безгранична. И все эти дети выросли, сами нашли свое место в жизни и стали хорошими людьми.
С самого начала рассказчик неслучайно говорит ту фразу, которая начинает мою рецензию. Потому что, на мой взгляд, фильм именно об этом. И даже не о Евдокиме, хотя это он создал семью. Любящую мать можно увидеть во всем: и в постоянных тревогах Евдокии о своих детях, и в ее решении остаться с Евдокимом, и в ее слезах на проводах сына в армию.
Замечательный фильм. И пусть он рисует несколько идеализированное положение дел, но после него остаются только светлые эмоции.
10 из 10
Формат : AVI
Формат/Информация : Audio Video Interleave
Размер файла : 1,40 Гбайт
Продолжительность : 1 ч. 40 м.
Общий поток : 2000 Кбит/сек
Библиотека кодирования : VirtualDub build 28225/release
Видео
Идентификатор : 0
Формат : MPEG-4 Visual
Профиль формата : [email protected]
Параметр BVOP формата : Нет
Параметр QPel формата : Нет
Параметр GMC формата : Без точки перехода
Параметр матрицы формата : Default (H.263)
Идентификатор кодека : XVID
Идентификатор кодека/Подсказка : XviD
Продолжительность : 1 ч. 40 м.
Битрейт : 1798 Кбит/сек
Ширина : 720 пикс.
Высота : 544 пикс.
Соотношение сторон : 4:3
Частота кадров : 25,000 кадр/сек
Цветовое пространство : YUV
Подвыборка цветности : 4:2:0
Битовая глубина : 8 бит
Тип развёртки : Прогрессивная
Метод сжатия : С потерями
Бит/(Пиксели*Кадры) : 0.184
Размер потока : 1,26 Гбайт (90%)
Библиотека кодирования : XviD 1.1.0 Beta2 (UTC 2005-04-04)
Аудио
Идентификатор : 1
Формат : MPEG Audio
Версия формата : Version 1
Профиль формата : Layer 3
Режим : Joint stereo
Идентификатор кодека : 55
Идентификатор кодека/Подсказка : MP3
Продолжительность : 1 ч. 40 м.
Вид битрейта : Постоянный
Битрейт : 192 Кбит/сек
Каналы : 2 канала
Частота : 48,0 КГц
Метод сжатия : С потерями
Размер потока : 138 Мбайт (10%)
Выравнивание : Разделение по промежуткам
Продолжительность промежутка : 40 мс. (1,00 видеокадр)
Время предзагрузки промежутка : 500 ms
Источник/Качество: DVDRip
Формат: AVI
Видео кодек: XviD
Аудио кодек: MP3
Видео: 720x544 (1.32:1), 25 fps, XviD 1.1 beta 2 (build 39) ~1798 kbps avg, 0.18 bit/pixel
Аудио: 48 kHz, MPEG Layer 3, 2 ch, ~192.00 kbps avg





Download / Скачать

Хотите скачать бесплатно? Зарегистрируйтесь на сайте (ссылка на регистрацию). Pirat.ca - самый быстрый торрент трекер в рунете!

Как скачивать  ·   Что такое торрент  ·   Рейтинг и ограничения



Последний раз редактировалось: kufre (2011-11-20 19:47), всего редактировалось 1 раз

Пост 18-Мар-2012 14:58 (спустя 3 месяца 27 дней)

Топик был перенесен из форума Наше Кино в форум Советское кино

ara1205
 

f-serega

Штурман

Пост 19-Май-2012 22:49 (спустя 5 месяцев 29 дней)

[Q] 

дайте скачать!!!! где раздающий?
[Профиль]  [ЛС] 

f-serega

Штурман

Пост 30-Май-2012 11:16 (спустя 10 дней)

[Q] 

Блин!!!! Да дайте скачать то.... Елки-моталки!!!!!
[Профиль]  [ЛС] 

Пост 19-Ноя-2012 15:47 (спустя 5 месяцев 20 дней)

Топик был перенесен из форума Архив (Наше кино) в форум Советское кино

erchine
 

Trianon777

Морской Волк

Пост 29-Июл-2014 23:17 (спустя 2 года 1 месяц)

[Q] 

СПАСИБО! Прекрасный фильм!
Что сказать о фильме... Еще один кино-шедевр Татьяны Лиозновой! Добрый, светлый, душевный, трепетный, заставляющий переживать и задумываться. Побольше бы таких фильмов! Очень рекомендую - можно воспитывать целые поколения. Ну, а Людмила Хитяева в роли Евдокии бесподобна!
[Профиль]  [ЛС] 

xzxscorpxzx

Флибустьер

Пост 15-Фев-2016 13:24 (спустя 1 год 6 месяцев)

[Q] 

супер.шедевр. !COOL!
[Профиль]  [ЛС] 
Показать сообщения:    
Ответить на тему

Текущее время: Сегодня 13:38

Часовой пояс: GMT + 4



Вы не можете начинать темы
Вы не можете отвечать на сообщения
Вы не можете редактировать свои сообщения
Вы не можете удалять свои сообщения
Вы не можете голосовать в опросах
Вы не можете прикреплять файлы к сообщениям
Вы не можете скачивать файлы

▼ Вниз