ML
     
  Уважаемый Гость!
Вы можете поддержать проект и зарегистрироваться у наших партнеров - онлайн-стратегия MyLands. При регистрации в игре Вы получите код, который сможете активировать после регистрации на pirat.ca и получить 1000 дублонов.

Ваш код:
c89b4b6523eaac3173e9a9c062ac1a19db575961
 
     

Щит и меч (Владимир Басов) [1968 г., драма, приключения, военный, DVDRip]

Ответить на тему
 
Автор
Сообщение

Пост 21-Ноя-2011 23:14

[Q] 

kufre

Корсар

Щит и меч
Год выпуска: 1968
Жанр: драма, приключения, военный
Продолжительность: 03:11:00
Режиссер: Владимир Басов
В ролях: Станислав Любшин (...Иоганн Вайс), Олег Янковский (...Генрих Шварцкопф), Сергей Плотников (II) (...генерал), Владимир Балашов (...Вальтер Зоненберг), Хорст Пройскер (...профессор Статтхоф), Михаил Погоржельский (...фон Зальц), Вера Титова, Анатолий Кубацкий (...группенфюрер Зоненберг), Николай Граббе (...немой агент "АБВЕРА"), Вацлав Дворжецкий (...шеф "АБВЕРА"), Владимир Маренков (...курсант школы "Абвера"), Нина Крачковская, Николай Засухин, Владимир Осенев (...фюрер), Игорь Безяев (...Кролик), Валентина Титова (...Нина), Ольга Жизнева (...баронесса), Юозас Будрайтис, Георгий Мартынюк (...Зубов), Альгимантас Масюлис (...Вили Шваркопф), Раднэр Муратов, Лев Поляков, Николай Прокопович, Людмила Чурсина, Елена Добронравова, Всеволод Сафонов, Наталья Величко, Валентин Смирнитский, Игорь Ясулович, Петр Репнин, Владимир Басов (...Бруно), Алла Демидова (...Ангелика), Алексей Глазырин, Улдис Думпис
Описание: Великая Отечественная война. Советский разведчик за несколько лет службы в абвере завоевывает расположение немецкого военного командования. Перевод в СС обеспечивает ему доступ к ценнейшей секретной информации…
Доп. информация: Две первые серии фильма («Без права быть собой», «Приказано выжить») занимают по посещаемости 8-е место среди отечественных фильмов за всю историю советского кинопроката.
3 и 4 серии с результатом 46,9 млн. зрителей при тираже 1997 копий занимают по посещаемости 47-е место среди отечественных фильмов за всю историю советского кинопроката.
Прототипом Йоганна Вайса стал легендарный советский разведчик Александр Пантелеймонович Святогоров (15 декабря 1913 — 22 июня 2008).
По другой версии, Вадим Кожевников образ Александра Белова списывал с другого легендарного разведчика — Вильяма Фишера. Имя «Александр Белов» намекает на вымышленную фамилию Фишера — Абель.
Для пробы на главную роль в фильме также приглашали Леонида Сметанникова, который в ту пору лишь поступил в Саратовскую консерваторию имени Л. В. Собинова.
По итогам ежегодного опроса ж. "Советский экран" Станислав Любшин признан лучшим актером 1968 года.
• Композитор: Вениамин Баснер
• Текст песен: Михаил Матусовский
• Исполнитель песни «С чего начинается Родина» (за кадром): Марк Бернес
1-й фильм - "Без права быть собой"
2-й фильм - "Приказано выжить..."
3-й фильм - "Обжалованию не подлежит"
4-й фильм - "Последний рубеж"


Теперь уже как-то подзабылось, что ещё до всенародного триумфа телесериала «Семнадцать мгновений весны» (по произведению Юлиана Семёнова) про доблестного советского разведчика Исаева-Штирлица, который был вхож даже в кабинеты бонз Третьего рейха, пятью годами ранее пользовался огромной популярностью в кинопрокате четырёхсерийный фильм «Щит и меч» (по роману Вадима Кожевникова) о другом разведчике Белове-Вайсе. Он хоть и был рангом пониже, но всё-таки смог занять должность офицера по личным поручениям у бригадефюрера СС.
Первые две серии этой ленты, появившиеся в наших кинотеатрах лишь за пару дней (что весьма симптоматично) до вторжения войск Варшавского договора в Чехословакию, вообще оказались в десятке самых кассовых за всю историю отечественного проката. И речь в них шла (кстати, чрезвычайно симптоматичны подзаголовки: «Без права быть собой» и «Приказано выжить…») о том, как летом 1940 года, накануне насильственного присоединения Прибалтики к СССР, засланный в Ригу разведчик Александр Белов, пользуясь знакомством с прибалтийскими немцами, перебрался в фашистскую Германию. А потом попал в Польшу перед самым началом Великой Отечественной войны и уже там развернул свою агентурную деятельность, постепенно продвигаясь по службе.
Необычность картины «Щит и меч» заключалась не только в её длительности и как бы романной структуре (ведь и прежде были сняты в чём-то схожие военно-героические минисериалы «Вызываем огонь на себя» и «Майор Вихрь», потом выпущенные в кинотеатрах), а именно в том, что чуть ли не впервые за два с лишним десятилетия после войны фашисты вообще и офицеры СС в частности были представлены на экране как умные и хитрые соперники. И работа глубоко внедрившегося советского разведчика отнюдь не сводилась к дерзким авантюрам и лихим операциям в тылу врага, а была показана вдумчиво и сосредоточенно.
Причём справедливо названный лучшим за 1968 год по опросу журнала «Советский экран» актёр Станислав Любшин в двойной роли Белова-Вайса чуть ли не на равных соперничал за особое зрительское внимание и с кинодебютантом Олегом Янковским, впечатляюще сыгравшим молодого гестаповца Генриха Шварцкопфа, который в итоге разочаровался в нацизме и согласился работать на нашу разведку, и с рядом иных исполнителей ролей «идейных немцев». Помимо прибалтов Юозаса Будрайтиса и Альгимантаса Масюлиса, надо непременно отметить Алексея Глазырина, Аллу Демидову, Людмилу Чурсину и Вацлава Дворжецкого, действительно убедительных в качестве неоднозначных личностей из лагеря противника.
Формат : AVI
Формат/Информация : Audio Video Interleave
Размер файла : 699 Мбайт
Продолжительность : 1 ч. 18 м.
Общий поток : 1238 Кбит/сек
Программа кодирования : VirtualDubMod 1.5.10.1 (build 2439/release)
Библиотека кодирования : VirtualDubMod build 2439/release
Видео
Идентификатор : 0
Формат : MPEG-4 Visual
Профиль формата : Advanced [email protected]
Параметр BVOP формата : 2
Параметр QPel формата : Нет
Параметр GMC формата : Без точки перехода
Параметр матрицы формата : Default (H.263)
Режим смешивания : Сжатый битовый поток
Идентификатор кодека : XVID
Идентификатор кодека/Подсказка : XviD
Продолжительность : 1 ч. 18 м.
Битрейт : 1126 Кбит/сек
Ширина : 704 пикс.
Высота : 288 пикс.
Соотношение сторон : 2,40:1
Частота кадров : 25,000 кадр/сек
Цветовое пространство : YUV
Подвыборка цветности : 4:2:0
Битовая глубина : 8 бит
Тип развёртки : Прогрессивная
Метод сжатия : С потерями
Бит/(Пиксели*Кадры) : 0.222
Размер потока : 636 Мбайт (91%)
Библиотека кодирования : XviD 1.0.3 (UTC 2004-12-20)
Аудио
Идентификатор : 1
Формат : MPEG Audio
Версия формата : Version 1
Профиль формата : Layer 3
Режим : Joint stereo
Расширение режима : MS Stereo
Идентификатор кодека : 55
Идентификатор кодека/Подсказка : MP3
Продолжительность : 1 ч. 18 м.
Вид битрейта : Переменный
Битрейт : 96,0 Кбит/сек
Каналы : 2 канала
Частота : 44,1 КГц
Метод сжатия : С потерями
Размер потока : 56,2 Мбайт (8%)
Выравнивание : Соединение по промежуткам
Продолжительность промежутка : 26 мс. (0,65 видеокадр)
Время предзагрузки промежутка : 192 ms
Библиотека кодирования : LAME3.96r
Настройки программы : -m j -V 4 -q 2 -lowpass 16 --abr 96
Общее
Полное имя : I:\ШАРА\ВИДЕО\ФИЛЬМЫ\НАШЕ\Щит и меч\Schit i mech_2.avi
Формат : AVI
Формат/Информация : Audio Video Interleave
Размер файла : 698 Мбайт
Продолжительность : 1 ч. 42 м.
Общий поток : 953 Кбит/сек
Программа кодирования : VirtualDubMod 1.5.10.1 (build 2439/release)
Библиотека кодирования : VirtualDubMod build 2439/release
Видео
Идентификатор : 0
Формат : MPEG-4 Visual
Профиль формата : Advanced [email protected]
Параметр BVOP формата : 2
Параметр QPel формата : Нет
Параметр GMC формата : Без точки перехода
Параметр матрицы формата : Default (H.263)
Режим смешивания : Сжатый битовый поток
Идентификатор кодека : XVID
Идентификатор кодека/Подсказка : XviD
Продолжительность : 1 ч. 42 м.
Битрейт : 842 Кбит/сек
Ширина : 576 пикс.
Высота : 240 пикс.
Соотношение сторон : 2,40:1
Частота кадров : 25,000 кадр/сек
Цветовое пространство : YUV
Подвыборка цветности : 4:2:0
Битовая глубина : 8 бит
Тип развёртки : Прогрессивная
Метод сжатия : С потерями
Бит/(Пиксели*Кадры) : 0.244
Размер потока : 617 Мбайт (88%)
Библиотека кодирования : XviD 1.0.3 (UTC 2004-12-20)
Аудио
Идентификатор : 1
Формат : MPEG Audio
Версия формата : Version 1
Профиль формата : Layer 3
Режим : Joint stereo
Расширение режима : MS Stereo
Идентификатор кодека : 55
Идентификатор кодека/Подсказка : MP3
Продолжительность : 1 ч. 42 м.
Вид битрейта : Переменный
Битрейт : 96,0 Кбит/сек
Каналы : 2 канала
Частота : 44,1 КГц
Метод сжатия : С потерями
Размер потока : 72,4 Мбайт (10%)
Выравнивание : Соединение по промежуткам
Продолжительность промежутка : 26 мс. (0,65 видеокадр)
Время предзагрузки промежутка : 193 ms
Библиотека кодирования : LAME3.96r
Настройки программы : -m j -V 4 -q 2 -lowpass 16 --abr 96
Общее
Полное имя : I:\ШАРА\ВИДЕО\ФИЛЬМЫ\НАШЕ\Щит и меч\Schit i mech_3.avi
Формат : AVI
Формат/Информация : Audio Video Interleave
Размер файла : 701 Мбайт
Продолжительность : 1 ч. 13 м.
Общий поток : 1336 Кбит/сек
Программа кодирования : VirtualDubMod 1.5.10.1 (build 2439/release)
Библиотека кодирования : VirtualDubMod build 2439/release
Видео
Идентификатор : 0
Формат : MPEG-4 Visual
Профиль формата : Advanced [email protected]
Параметр BVOP формата : 2
Параметр QPel формата : Нет
Параметр GMC формата : Без точки перехода
Параметр матрицы формата : Default (H.263)
Режим смешивания : Сжатый битовый поток
Идентификатор кодека : XVID
Идентификатор кодека/Подсказка : XviD
Продолжительность : 1 ч. 13 м.
Битрейт : 1219 Кбит/сек
Ширина : 704 пикс.
Высота : 288 пикс.
Соотношение сторон : 2,40:1
Частота кадров : 25,000 кадр/сек
Цветовое пространство : YUV
Подвыборка цветности : 4:2:0
Битовая глубина : 8 бит
Тип развёртки : Прогрессивная
Метод сжатия : С потерями
Бит/(Пиксели*Кадры) : 0.240
Размер потока : 639 Мбайт (91%)
Библиотека кодирования : XviD 1.0.3 (UTC 2004-12-20)
Аудио
Идентификатор : 1
Формат : MPEG Audio
Версия формата : Version 1
Профиль формата : Layer 3
Режим : Joint stereo
Расширение режима : MS Stereo
Идентификатор кодека : 55
Идентификатор кодека/Подсказка : MP3
Продолжительность : 1 ч. 13 м.
Вид битрейта : Переменный
Битрейт : 96,0 Кбит/сек
Каналы : 2 канала
Частота : 44,1 КГц
Метод сжатия : С потерями
Размер потока : 51,7 Мбайт (7%)
Выравнивание : Соединение по промежуткам
Продолжительность промежутка : 26 мс. (0,65 видеокадр)
Время предзагрузки промежутка : 194 ms
Библиотека кодирования : LAME3.96r
Настройки программы : -m j -V 4 -q 2 -lowpass 16 --abr 96
Общее
Полное имя : I:\ШАРА\ВИДЕО\ФИЛЬМЫ\НАШЕ\Щит и меч\Schit i mech_4.avi
Формат : AVI
Формат/Информация : Audio Video Interleave
Размер файла : 699 Мбайт
Продолжительность : 1 ч. 10 м.
Общий поток : 1381 Кбит/сек
Программа кодирования : VirtualDubMod 1.5.10.1 (build 2439/release)
Библиотека кодирования : VirtualDubMod build 2439/release
Видео
Идентификатор : 0
Формат : MPEG-4 Visual
Профиль формата : Advanced [email protected]
Параметр BVOP формата : 2
Параметр QPel формата : Нет
Параметр GMC формата : Без точки перехода
Параметр матрицы формата : Default (H.263)
Режим смешивания : Сжатый битовый поток
Идентификатор кодека : XVID
Идентификатор кодека/Подсказка : XviD
Продолжительность : 1 ч. 10 м.
Битрейт : 1267 Кбит/сек
Ширина : 704 пикс.
Высота : 288 пикс.
Соотношение сторон : 2,40:1
Частота кадров : 25,000 кадр/сек
Цветовое пространство : YUV
Подвыборка цветности : 4:2:0
Битовая глубина : 8 бит
Тип развёртки : Прогрессивная
Метод сжатия : С потерями
Бит/(Пиксели*Кадры) : 0.250
Размер потока : 641 Мбайт (92%)
Библиотека кодирования : XviD 1.0.3 (UTC 2004-12-20)
Аудио
Идентификатор : 1
Формат : MPEG Audio
Версия формата : Version 1
Профиль формата : Layer 3
Режим : Joint stereo
Расширение режима : MS Stereo
Идентификатор кодека : 55
Идентификатор кодека/Подсказка : MP3
Продолжительность : 1 ч. 10 м.
Вид битрейта : Переменный
Битрейт : 102 Кбит/сек
Номинальный битрейт : 96,0 Кбит/сек
Каналы : 2 канала
Частота : 44,1 КГц
Метод сжатия : С потерями
Размер потока : 51,6 Мбайт (7%)
Выравнивание : Соединение по промежуткам
Продолжительность промежутка : 26 мс. (0,65 видеокадр)
Время предзагрузки промежутка : 187 ms
Библиотека кодирования : LAME3.96r
Настройки программы : -m j -V 4 -q 2 -lowpass 16 --abr 96
Общее
Полное имя : I:\ШАРА\ВИДЕО\ФИЛЬМЫ\НАШЕ\Щит и меч\Thumbs.db
Размер файла : 5,50 Кбайт
Источник/Качество: DVDRip
Формат: AVI
Видео кодек: XviD
Аудио кодек: МР3
Видео 1 серия: 704x288 (2.44:1), 25 fps, XviD Final 1.0.3 (build 37) ~1126 kbps avg, 0.22 bit/pixel
Аудио 1 серия: 44.100 kHz, MPEG Layer 3, 2 ch, ~99.62 kbps avg
Видео 2 серия: 576x240 (2.40:1), 25 fps, XviD Final 1.0.3 (build 37) ~841 kbps avg, 0.24 bit/pixel
Аудио 2 серия: 44.100 kHz, MPEG Layer 3, 2 ch, ~98.86 kbps avg
Видео 3 серия: 704x288 (2.44:1), 25 fps, XviD Final 1.0.3 (build 37) ~1218 kbps avg, 0.24 bit/pixel
Аудио 3 серия: 44.100 kHz, MPEG Layer 3, 2 ch, ~98.54 kbps avg
Видео 4 серия: 704x288 (2.44:1), 25 fps, XviD Final 1.0.3 (build 37) ~1266 kbps avg, 0.25 bit/pixel
Аудио 4 серия: 44.100 kHz, MPEG Layer 3, 2 ch, ~101.94 kbps avg
Выложено по одному скриншоту с каждой серии



Download / Скачать

Хотите скачать бесплатно? Зарегистрируйтесь на сайте (ссылка на регистрацию). Pirat.ca - самый быстрый торрент трекер в рунете!

Как скачивать  ·   Что такое торрент  ·   Рейтинг и ограничения

Пост 22-Ноя-2011 08:19 (спустя 9 часов)

Топик был перенесен из форума Наше Кино в форум Советское кино

Skinwalker
 

jumpersky

Легенда

Пост 22-Ноя-2011 11:32 (спустя 12 часов)

[Q] 

СПАСИБО!
[Профиль]  [ЛС] 

dimon.kozloff

Шкипер

Пост 27-Ноя-2011 07:13 (спустя 4 дня)

[Q] 

спасибо за прекрасный фильм

_________________
dimon.kozloff
[Профиль]  [ЛС] 

kufre ®

Корсар

3086

Пост 27-Ноя-2011 09:48 (спустя 2 часа 34 минуты)

[Q] 

СПАСИБО!
спасибо за прекрасный фильм
Все для Вас!))

_________________
[Профиль]  [ЛС] 

CHARLI2236

1098

Пост 13-Дек-2011 13:51 (спустя 16 дней)

[Q] 

спасибо

_________________
[Профиль]  [ЛС] 

moremanihe

Штурман

Пост 16-Дек-2011 01:40 (спустя 2 дня 11 часов)

[Q] 

С превеликим удовольствием буду качать.
Спасибо...
[Профиль]  [ЛС] 

Jalok

Лоцман

Пост 16-Дек-2011 20:40 (спустя 19 часов)

[Q] 

Спасибо Большое!!!

_________________
Жизнь прекрасна и удивительна!!!
[Профиль]  [ЛС] 

danykaz

Лоцман

Пост 22-Янв-2012 17:13 (спустя 1 месяц 5 дней)

[Q] 

встаньте на раздачю !!! плиз !!!
[Профиль]  [ЛС] 

stregubov

Лоцман

Пост 10-Сен-2012 00:29 (спустя 7 месяцев 18 дней)

[Q] 

из всех раздач на трекерах сия самая качественная и звук великолепен.
[Профиль]  [ЛС] 

БАМиМС

Морской Волк

Пост 30-Окт-2012 18:12 (спустя 1 месяц 20 дней)

[Q] 

Большое СПАСИБО!!!!
[Профиль]  [ЛС] 

LORD OR

Корсар

Пост 12-Ноя-2012 21:40 (спустя 13 дней)

[Q] 

Спасибо огромное! Замечательный фильм!
[Профиль]  [ЛС] 

AndyFox

Корсар

376

Пост 21-Ноя-2012 12:43 (спустя 8 дней)

[Q] 

Любимый фильм В. В. П. кажется... =)

_________________
Torrent.
[Профиль]  [ЛС] 
Показать сообщения:    
Ответить на тему

Текущее время: Сегодня 22:31

Часовой пояс: GMT + 4



Вы не можете начинать темы
Вы не можете отвечать на сообщения
Вы не можете редактировать свои сообщения
Вы не можете удалять свои сообщения
Вы не можете голосовать в опросах
Вы не можете прикреплять файлы к сообщениям
Вы не можете скачивать файлы

▼ Вниз