ML
     
  Уважаемый Гость!
Вы можете поддержать проект и зарегистрироваться у наших партнеров - онлайн-стратегия MyLands. При регистрации в игре Вы получите код, который сможете активировать после регистрации на pirat.ca и получить 1000 дублонов.

Ваш код:
8b752b428cf60a012c159dcae592cd1392170115
 
     

Через Гоби и Хинган (Василий Ордынский, Бадрахын Сумху) [1981 г., военный, DVDRip]

Ответить на тему
 
Автор
Сообщение

Пост 22-Ноя-2011 21:10

[Q] 

kufre

Корсар

Через Гоби и Хинган (две серии)
Год выпуска: 1981
Жанр: военный
Продолжительность: 02:47:00
Режиссер: Василий Ордынский, Бадрахын Сумху
В ролях: Александр Овчинников, Людмила Петрова, Владимир Ивашов, Болот Бейшеналиев, Андро Кобаладзе, Лев Золотухин, Всеволод Ларионов, Вячеслав Езепов, Евгений Лазарев, Леонид Неведомский, Андрей Мартынов, Олег Штефанко, Татьяна Ким, Ахсарбек Бекмурзов, Гомбожавын Гомбосурэн, Вадим Лущевский, Ирина Гошева, Валерий Погорельцев, Николай Пеньков, Светлана Тормахова, Роман Хомятов, Николай Сморчков
Описание: О событиях завершающего этапа второй мировой войны — разгроме советскими и монгольскими войсками отборной Квантунской армии. В лаборатории японского генерала Исии Сиро создавалось бактериологическое оружие. Опыты проводились на военнопленных и политических заключенных. Врачу-эпидемиологу Дмитрию Соколову было поручено разгадать тайну этой лаборатории. Ценой собственной жизни он выполнил задание. Марш советских и монгольских соединений через пески Гоби и отроги Хингана был не только блестящей военной операцией, но и предупреждением применения Японией бактериологического оружия.
Формат : AVI
Формат/Информация : Audio Video Interleave
Размер файла : 705 Мбайт
Продолжительность : 1 ч. 20 м.
Общий поток : 1229 Кбит/сек
Программа кодирования : VirtualDubModRus 1.5.10.2 (build 2542/release)
Библиотека кодирования : VirtualDubMod build 2542/release
Видео
Идентификатор : 0
Формат : MPEG-4 Visual
Профиль формата : Advanced [email protected]
Параметр BVOP формата : 1
Параметр QPel формата : Нет
Параметр GMC формата : Без точки перехода
Параметр матрицы формата : Выборочная
Идентификатор кодека : XVID
Идентификатор кодека/Подсказка : XviD
Продолжительность : 1 ч. 20 м.
Битрейт : 1091 Кбит/сек
Ширина : 720 пикс.
Высота : 288 пикс.
Соотношение сторон : 2,500
Частота кадров : 25,000 кадр/сек
Цветовое пространство : YUV
Подвыборка цветности : 4:2:0
Битовая глубина : 8 бит
Тип развёртки : Прогрессивная
Метод сжатия : С потерями
Бит/(Пиксели*Кадры) : 0.210
Размер потока : 626 Мбайт (89%)
Библиотека кодирования : XviD 1.3.0.dev55
Аудио
Идентификатор : 1
Формат : MPEG Audio
Версия формата : Version 1
Профиль формата : Layer 3
Режим : Joint stereo
Расширение режима : MS Stereo
Идентификатор кодека : 55
Идентификатор кодека/Подсказка : MP3
Продолжительность : 1 ч. 20 м.
Вид битрейта : Постоянный
Битрейт : 128 Кбит/сек
Каналы : 2 канала
Частота : 44,1 КГц
Метод сжатия : С потерями
Размер потока : 73,4 Мбайт (10%)
Выравнивание : Разделение по промежуткам
Продолжительность промежутка : 40 мс. (1,00 видеокадр)
Время предзагрузки промежутка : 500 ms
Язык : Czech
Общее
Полное имя : F:\ШАРА F\ФИЛЬМЫ\НАШЕ\Через Гоби и Хинган\Через Гоби и Хинган. Серия 1.avi
Формат : AVI
Формат/Информация : Audio Video Interleave
Размер файла : 704 Мбайт
Продолжительность : 1 ч. 16 м.
Общий поток : 1279 Кбит/сек
Программа кодирования : VirtualDubModRus 1.5.10.2 (build 2542/release)
Библиотека кодирования : VirtualDubMod build 2542/release
Видео
Идентификатор : 0
Формат : MPEG-4 Visual
Профиль формата : Advanced [email protected]
Параметр BVOP формата : 1
Параметр QPel формата : Нет
Параметр GMC формата : Без точки перехода
Параметр матрицы формата : Выборочная
Идентификатор кодека : XVID
Идентификатор кодека/Подсказка : XviD
Продолжительность : 1 ч. 16 м.
Битрейт : 1142 Кбит/сек
Ширина : 720 пикс.
Высота : 288 пикс.
Соотношение сторон : 2,500
Частота кадров : 25,000 кадр/сек
Цветовое пространство : YUV
Подвыборка цветности : 4:2:0
Битовая глубина : 8 бит
Тип развёртки : Прогрессивная
Метод сжатия : С потерями
Бит/(Пиксели*Кадры) : 0.220
Размер потока : 628 Мбайт (89%)
Библиотека кодирования : XviD 1.3.0.dev55
Аудио
Идентификатор : 1
Формат : MPEG Audio
Версия формата : Version 1
Профиль формата : Layer 3
Режим : Joint stereo
Расширение режима : MS Stereo
Идентификатор кодека : 55
Идентификатор кодека/Подсказка : MP3
Продолжительность : 1 ч. 16 м.
Вид битрейта : Постоянный
Битрейт : 128 Кбит/сек
Каналы : 2 канала
Частота : 48,0 КГц
Метод сжатия : С потерями
Размер потока : 70,4 Мбайт (10%)
Выравнивание : Соединение по промежуткам
Продолжительность промежутка : 40 мс. (1,00 видеокадр)
Время предзагрузки промежутка : 504 ms
Язык : Czech
Источник/Качество: DVDRip
Формат: AVI
Видео кодек: XviD
Аудио кодек: MP3
Видео 1 серия: 720x288 (2.50:1), 25 fps, XviD build 55 ~1141 kbps avg, 0.22 bit/pixel
Аудио 1 серия: 48 kHz, MPEG Layer 3, 2 ch, ~128.00 kbps avg
Видео 2 серия: 720x288 (2.50:1), 25 fps, XviD build 55 ~1091 kbps avg, 0.21 bit/pixel
Аудио 2 серия: 44.100 kHz, MPEG Layer 3, 2 ch, ~128.00 kbps avg




Download / Скачать

Хотите скачать бесплатно? Зарегистрируйтесь на сайте (ссылка на регистрацию). Pirat.ca - самый быстрый торрент трекер в рунете!

Как скачивать  ·   Что такое торрент  ·   Рейтинг и ограничения

abcxyz

Штурман

Пост 26-Ноя-2011 05:32 (спустя 3 дня)

[Q] 

Почему, прекратилась раздача? Релизер, ты где?
[Профиль]  [ЛС] 

kufre ®

Корсар

3086

Пост 26-Ноя-2011 10:37 (спустя 5 часов)

[Q] 

Я здесь! Что значит прекратилась?

_________________
[Профиль]  [ЛС] 

kufre ®

Корсар

3086

Пост 27-Ноя-2011 21:07 (спустя 1 день 10 часов)

[Q] 


_________________
[Профиль]  [ЛС] 

Пост 18-Мар-2012 14:57 (спустя 3 месяца 20 дней)

Топик был перенесен из форума Наше Кино в форум Советское кино

ara1205
 
Показать сообщения:    
Ответить на тему

Текущее время: Сегодня 06:24

Часовой пояс: GMT + 4



Вы не можете начинать темы
Вы не можете отвечать на сообщения
Вы не можете редактировать свои сообщения
Вы не можете удалять свои сообщения
Вы не можете голосовать в опросах
Вы не можете прикреплять файлы к сообщениям
Вы не можете скачивать файлы

▼ Вниз