ML
     
  Уважаемый Гость!
Вы можете поддержать проект и зарегистрироваться у наших партнеров - онлайн-стратегия MyLands. При регистрации в игре Вы получите код, который сможете активировать после регистрации на pirat.ca и получить 1000 дублонов.

Ваш код:
fe4e93b754a7c2b306fcfc8bc32532ea1cf59d3b
 
     

Женатый холостяк (Владимир Роговой) [1982 г., мюзикл, комедия, DVDRip]

Ответить на тему
 
Автор
Сообщение

Пост 22-Ноя-2011 21:30

[Q] 

kufre

Корсар

Женатый холостяк
Год выпуска: 1982
Жанр: мюзикл, комедия
Продолжительность: 01:24:00
Режиссер: Владимир Роговой
В ролях: Лариса Удовиченко, Юрий Григорьев, Баадур Цуладзе, Александр Пшеничнов, Вера Васильева, Игорь Янковский, Ирина Мурзаева, Михаил Пуговкин, Надежда Румянцева, Роман Филиппов
Описание: Сергей и Тамара знакомятся в поезде. Она рассказывает ему, что едет к своим родителям, у которых сейчас ее сын, а с мужем развелась и больше к нему не вернется. Однако говорить родителям об этом она не хочет, чтобы их лишний раз не расстраивать. И Сергей решает представиться ее мужем… Однако эта новая роль в итоге окажется очень для него сложна.
Формат : AVI
Формат/Информация : Audio Video Interleave
Размер файла : 1,37 Гбайт
Продолжительность : 1 ч. 24 м.
Общий поток : 2329 Кбит/сек
Программа кодирования : VirtualDubModRus 1.5.10.2 (build 2542/release)
Библиотека кодирования : VirtualDubMod build 2542/release
Видео
Идентификатор : 0
Формат : MPEG-4 Visual
Параметр BVOP формата : 1
Параметр QPel формата : Нет
Параметр GMC формата : Без точки перехода
Параметр матрицы формата : Default (H.263)
Режим смешивания : Сжатый битовый поток
Идентификатор кодека : DX50
Идентификатор кодека/Подсказка : DivX 5
Продолжительность : 1 ч. 24 м.
Битрейт : 2095 Кбит/сек
Ширина : 704 пикс.
Высота : 528 пикс.
Соотношение сторон : 4:3
Частота кадров : 25,000 кадр/сек
Цветовое пространство : YUV
Подвыборка цветности : 4:2:0
Битовая глубина : 8 бит
Тип развёртки : Прогрессивная
Метод сжатия : С потерями
Бит/(Пиксели*Кадры) : 0.225
Размер потока : 1,23 Гбайт (90%)
Библиотека кодирования : DivX 6.8.3-6.8.4 (UTC 2008-06-07)
Аудио
Идентификатор : 1
Формат : AC-3
Формат/Информация : Audio Coding 3
Расширение режима : CM (complete main)
Идентификатор кодека : 2000
Продолжительность : 1 ч. 23 м.
Вид битрейта : Постоянный
Битрейт : 224 Кбит/сек
Каналы : 2 канала
Расположение каналов : Front: L R
Частота : 48,0 КГц
Битовая глубина : 16 бит
Метод сжатия : С потерями
Размер потока : 135 Мбайт (10%)
Выравнивание : Соединение по промежуткам
Продолжительность промежутка : 40 мс. (1,00 видеокадр)
Время предзагрузки промежутка : 512 ms
Источник/Качество: DVDRip
Формат: AVI
Видео кодек: DivX
Аудио кодек: AC3
Видео: 704x528 (1.33:1), 25 fps, DivX Codec 6.8.3 ~2095 kbps avg, 0.23 bit/pixel
Аудио: 48 kHz, AC3 Dolby Digital, 2/0 (L,R) ch, ~224 kbps





Download / Скачать

Хотите скачать бесплатно? Зарегистрируйтесь на сайте (ссылка на регистрацию). Pirat.ca - самый быстрый торрент трекер в рунете!

Как скачивать  ·   Что такое торрент  ·   Рейтинг и ограничения



Последний раз редактировалось: kufre (2012-11-25 19:31), всего редактировалось 1 раз

Пост 22-Ноя-2011 21:33 (спустя 3 минуты)

Топик был перенесен из форума Наше Кино в форум Советское кино

Skinwalker
 

Пост 25-Ноя-2012 20:30 (спустя 1 год)

Топик был перенесен из форума Наше кино (Трюм) в форум Советское кино

erchine
 
Показать сообщения:    
Ответить на тему

Текущее время: Сегодня 14:26

Часовой пояс: GMT + 4



Вы не можете начинать темы
Вы не можете отвечать на сообщения
Вы не можете редактировать свои сообщения
Вы не можете удалять свои сообщения
Вы не можете голосовать в опросах
Вы не можете прикреплять файлы к сообщениям
Вы не можете скачивать файлы

▼ Вниз