ML
     
  Уважаемый Гость!
Вы можете поддержать проект и зарегистрироваться у наших партнеров - онлайн-стратегия MyLands. При регистрации в игре Вы получите код, который сможете активировать после регистрации на pirat.ca и получить 1000 дублонов.

Ваш код:
fe4e93b754a7c2b306fcfc8bc32532ea1cf59d3b
 
     

Если я полюблю (Лев Цуцульковский) [1976 г., мелодрама, DVDScreener]

Ответить на тему
 
Автор
Сообщение

Пост 24-Ноя-2011 21:43

[Q] 

kufre

Корсар

Если я полюблю
Год выпуска: 1976
Жанр: мелодрама
Продолжительность: 01:14:42
Режиссер: Лев Цуцульковский
В ролях: Ирина Акулова, Роман Громадский, Михаил Долгинин, Александр Хочинский, Олег Окулевич, Георгий Соколов, Галина Карелина, Юрий Башков, Николай Кузьмин
Описание: О первой экспедиции выпускницы геологического института Шуры и ее первой любви.
Формат : AVI
Формат/Информация : Audio Video Interleave
Размер файла : 875 Мбайт
Продолжительность : 1 ч. 14 м.
Общий поток : 1638 Кбит/сек
Название фильма : Если я полюблю
Режиссёр : chizhik
Жанр : Melodrama
Формат оригинала/Имя : Movie
Видео
Идентификатор : 0
Формат : MPEG-4 Visual
Профиль формата : [email protected]
Параметр BVOP формата : Да
Параметр QPel формата : Нет
Параметр GMC формата : Без точки перехода
Параметр матрицы формата : Default (H.263)
Идентификатор кодека : XVID
Идентификатор кодека/Подсказка : XviD
Продолжительность : 1 ч. 14 м.
Битрейт : 1500 Кбит/сек
Ширина : 688 пикс.
Высота : 560 пикс.
Соотношение сторон : 1,229
Частота кадров : 25,000 кадр/сек
Цветовое пространство : YUV
Подвыборка цветности : 4:2:0
Битовая глубина : 8 бит
Тип развёртки : Прогрессивная
Метод сжатия : С потерями
Бит/(Пиксели*Кадры) : 0.156
Размер потока : 802 Мбайт (92%)
Аудио
Идентификатор : 1
Формат : MPEG Audio
Версия формата : Version 1
Профиль формата : Layer 3
Режим : Joint stereo
Расширение режима : MS Stereo
Идентификатор кодека : 55
Идентификатор кодека/Подсказка : MP3
Продолжительность : 1 ч. 14 м.
Вид битрейта : Постоянный
Битрейт : 128 Кбит/сек
Каналы : 2 канала
Частота : 44,1 КГц
Метод сжатия : С потерями
Размер потока : 68,4 Мбайт (8%)
Выравнивание : Разделение по промежуткам
Продолжительность промежутка : 40 мс. (1,00 видеокадр)
Время предзагрузки промежутка : 500 ms
Библиотека кодирования : LAME3.97
Источник/Качество: DVDScreener
Формат: AVI
Видео кодек: XviD
Аудио кодек: МР3
Видео: 688x560 (1.23:1), 25 fps, XviD MPEG-4 ~1500 kbps avg, 0.16 bit/pixel
Аудио: 44.100 kHz, MPEG Layer 3, 2 ch, ~128.00 kbps avg



Download / Скачать

Хотите скачать бесплатно? Зарегистрируйтесь на сайте (ссылка на регистрацию). Pirat.ca - самый быстрый торрент трекер в рунете!

Как скачивать  ·   Что такое торрент  ·   Рейтинг и ограничения



Последний раз редактировалось: kufre (2012-11-25 20:05), всего редактировалось 1 раз

Пост 24-Ноя-2011 23:37 (спустя 1 час 53 минуты)

Топик был перенесен из форума Наше Кино в форум Советское кино

Skinwalker
 
Показать сообщения:    
Ответить на тему

Текущее время: Сегодня 14:31

Часовой пояс: GMT + 4



Вы не можете начинать темы
Вы не можете отвечать на сообщения
Вы не можете редактировать свои сообщения
Вы не можете удалять свои сообщения
Вы не можете голосовать в опросах
Вы не можете прикреплять файлы к сообщениям
Вы не можете скачивать файлы

▼ Вниз