ML
     
  Уважаемый Гость!
Вы можете поддержать проект и зарегистрироваться у наших партнеров - онлайн-стратегия MyLands. При регистрации в игре Вы получите код, который сможете активировать после регистрации на pirat.ca и получить 1000 дублонов.

Ваш код:
a978488e62322cd72e113ab723b8a7fdc10eb9b9
 
     

Таежная повесть (Владимир Фетин) [1979 г., драма, SATRip]

Ответить на тему
 
Автор
Сообщение

Пост 24-Ноя-2011 23:00

[Q] 

kufre

Корсар

Таежная повесть
Год выпуска: 1979
Жанр: драма
Продолжительность: 01:33:17
Режиссер: Владимир Фетин
В ролях: Михаил Кононов,Светлана Смехнова,Владимир Кашпур,Евгений Киндинов
Описание: Напоминающий монаха-отшельника таежный охотник Аким неожиданно находит в собственном зимовье умирающую девушку, которую взял с собой «вольный человек» и законченный ловелас Гога, да сам не выдержал испытаний царь-рыбой. Малограмотный Аким проявляет чудеса смекалки, чтобы спасти незваную гостью от смерти. Он стоически выхаживает её, чем сильно затрудняет для себя выполнение производственных показателей. Но что они в сравнении с сердечными муками, которые приходят к Акиму, когда прекрасная Эля приходит в себя! И ей невероятно мил этот человек, но, к сожалению, они представители разных «галактик»…
Не теряйте корни
После просмотра подобных фильмов — испытываешь реальный культурный шок. Воистину нет пророка в своём Отечестве. Мы можем сколько угодно восторгаться, да хотя бы тем же Ким Ки Дуком, а вот глянешь что-нибудь наше старое… А ведь в интернете зачастую к подобным фильмам сложно найти не то что описание, а банальный постер, или хотя бы банальное упоминание. Бывает так, что глядя какой-нибудь ностальгический телеканал попадаешь на нечто. И смотришь и понимаешь — что мы потеряли. Я не о стране и прочей политики.
Фильм очень здорово показывает даже не время, а его так сказать дух, хотя дело имеем по сути всего с двумя с половиной актёров и парой собак, которые реально играют и являются полноценными участниками действа.
Ведь были же времена, когда молодая девушка не боялась отправиться в тайгу с малознакомым мужичком. И мужичок, хотя и гад приличный, но именно приличный, способный и слово молвить и мировоззрение имеющий (пусть и чужое). Здесь вообще масса откровений, которые большинству современной молодёжи будут казаться ненаучной фантастикой, одна сцена с помывкой больной героини чего стоит, и ведь понимаешь, что действительно так и могло быть, без пошлостей и скабрезности, а частушки хотя и не самые светские, но … ну подскажите же слово, эпитет, метафоры… Боюсь не сможете. Ибо ушло и время и люди и, если угодно даже не атмосфера, а целое пространство, Вселенная.
Всё что появиться потом у того же Ким Ки Дука, здесь оформлено в лучшем виде. Минимум людей, немногочисленные диалоги, хотя какие же это диалоги. Это некий монолог одного и/или двух действующих лиц, символы (одна ветка в конце фильма ложит на лопатки все голливудские попытки чего-то там философского). Вы пробовали заставить сыграть ВЕТКУ. А тогда могли.
Я редко препарирую фильмы, которым ставлю высший бал, ибо хвалить тут можно всё и вся, а прицепиться ровный счётом не к чему. Современный зритель, взращенный на модных эффектах, теориях заговоров и прочей галиматье возможно просто никогда не столкнётся с такой категорией фильмов, любители зауми, пожалуй тоже. Дамы и Господа. Не в 3D счастье. И не одним Ким Ки Дуком жив кинематограф.
Встретите этот фильм. Постарайтесь не пропустить. Это корни. И эти корни прочно и убедительно держат и выдержат любые испытания.
Формат : AVI
Формат/Информация : Audio Video Interleave
Размер файла : 1,46 Гбайт
Продолжительность : 1 ч. 33 м.
Общий поток : 2236 Кбит/сек
Программа кодирования : VirtualDubMod 1.5.10.2 (build 2540/release)
Примечание : Rip by iriston
Видео
Идентификатор : 0
Формат : MPEG-4 Visual
Профиль формата : Advanced [email protected]
Параметр BVOP формата : 1
Параметр QPel формата : Нет
Параметр GMC формата : Без точки перехода
Параметр матрицы формата : Выборочная
Идентификатор кодека : XVID
Идентификатор кодека/Подсказка : XviD
Продолжительность : 1 ч. 33 м.
Битрейт : 2034 Кбит/сек
Ширина : 704 пикс.
Высота : 528 пикс.
Соотношение сторон : 4:3
Частота кадров : 25,000 кадр/сек
Цветовое пространство : YUV
Подвыборка цветности : 4:2:0
Битовая глубина : 8 бит
Тип развёртки : Прогрессивная
Метод сжатия : С потерями
Бит/(Пиксели*Кадры) : 0.219
Размер потока : 1,33 Гбайт (91%)
Библиотека кодирования : XviD 1.2.1 (UTC 2008-12-04)
Аудио
Идентификатор : 1
Формат : MPEG Audio
Версия формата : Version 1
Профиль формата : Layer 3
Идентификатор кодека : 55
Идентификатор кодека/Подсказка : MP3
Продолжительность : 1 ч. 33 м.
Вид битрейта : Постоянный
Битрейт : 192 Кбит/сек
Каналы : 2 канала
Частота : 48,0 КГц
Метод сжатия : С потерями
Размер потока : 128 Мбайт (9%)
Выравнивание : Соединение по промежуткам
Продолжительность промежутка : 40 мс. (1,00 видеокадр)
Время предзагрузки промежутка : 504 ms
Библиотека кодирования : LAME3.98r
Настройки программы : -m s -V 4 -q 2 -lowpass 18.6 -b 192
Источник/Качество: SATRip
Формат: AVI
Видео кодек: XviD
Аудио кодек: МР3
Видео: 704x528 (1.33:1), 25 fps, XviD build 50 ~2033 kbps avg, 0.22 bit/pixel
Аудио: 48 kHz, MPEG Layer 3, 2 ch, ~192.00 kbps avg





Download / Скачать

Хотите скачать бесплатно? Зарегистрируйтесь на сайте (ссылка на регистрацию). Pirat.ca - самый быстрый торрент трекер в рунете!

Как скачивать  ·   Что такое торрент  ·   Рейтинг и ограничения



Последний раз редактировалось: kufre (2012-11-25 19:40), всего редактировалось 4 раз(а)

Пост 18-Мар-2012 14:52 (спустя 3 месяца 23 дня)

Топик был перенесен из форума Наше Кино в форум Советское кино

ara1205
 

Roman67

Шкипер

Пост 11-Дек-2012 14:24 (спустя 1 год)

[Q] 

[Профиль]  [ЛС] 

CHARLI2236

1096

Пост 11-Сен-2013 18:40 (спустя 9 месяцев)

[Q] 

подключусь AntiZip 24

_________________
[Профиль]  [ЛС] 
Показать сообщения:    
Ответить на тему

Текущее время: Сегодня 22:08

Часовой пояс: GMT + 4



Вы не можете начинать темы
Вы не можете отвечать на сообщения
Вы не можете редактировать свои сообщения
Вы не можете удалять свои сообщения
Вы не можете голосовать в опросах
Вы не можете прикреплять файлы к сообщениям
Вы не можете скачивать файлы

▼ Вниз