ML
     
  Уважаемый Гость!
Вы можете поддержать проект и зарегистрироваться у наших партнеров - онлайн-стратегия MyLands. При регистрации в игре Вы получите код, который сможете активировать после регистрации на pirat.ca и получить 1000 дублонов.

Ваш код:
34514219cfad5497a1822ecc1269bea77988f9aa
 
     

Дачная поездка сержанта Цыбули (Николай Литус, Виталий Шунько) [1979 г., комедия, военный, DVDRip]

Ответить на тему
 
Автор
Сообщение

Пост 28-Ноя-2011 10:07

[Q] 

kufre

Корсар

Дачная поездка сержанта Цыбули
Год выпуска: 1979
Жанр: комедия, военный
Продолжительность: 01:12:32
Режиссер: Николай Литус, Виталий Шунько
В ролях: Сергей Иванов, Владимир Алексеенко, Михаил Кокшенов, Надежда Смирнова, Владимир Чубарев, Михаил Львов, Нина Реус, Степан Олексенко, Сергей Свечников, Маргарита Криницына
Описание: Разведчик, сержант Цыбуля, успешно выполнив очередное задание, снова отправляется в тыл к немцам. Теперь ему поручено доставить партизанам медикаменты, продовольствие и взрывчатку.
Приняв костры врага за опознавательные сигналы партизан, Цыбуля приземляется в логове противника… Но, перехитрив своих преследователей и захватив в плен немецкого майора, он все-таки прорывается к партизанам на вражеском бронепоезде.
Доп. информация: «Роль» немецкой автомотрисы (её позже взорвут на мосту) «сыграла» советская АС1А (выпускалась с 1964 года).
Когда полицай Гергало улёгся в гроб, пробегающий мимо фашист перекрестился по православному, справо налево, хотя немцы (в большинстве своём католики и лютеране) крестятся наоборот, слева направо.
Угнаный Цыбулей «немецкий» бронетранспортер являлся всего лищь советским БТР-152, который был принят на вооружение в 50-х годах.
Редкая военная советская комедия…
Пропустил я этот фильм когда-то. Тогда в общежитии жил и учился — не до походов в кино было. Ныне посмотрел с тем большим удовольствием что, по моему личному мнению, новых хороших фильмов в Россиянии уже принципиально не выпускают, отчего встреча с позабытым старым вдвойне приятнее.
Известно, что нормальных (не идеологических/сатирических) комедий на тему ВОВ в СССР выпущено было очень мало, всё, что быстро приходит на ум, это: «Женя, Женечка и катюша» и «Крепкий орешек»(наш, эСэСэСэРовский). Полагаю, связано это с тем, что война для нас была трагедией и снимать классическую комедию о тех днях было очень не просто чисто морально.
Обсуждаемый фильм не посрамил советского кинематографа, очень бережно обошёлся с реалиями войны и получился патриотичным, даже нежным по отношению к нашим женщинам, и в меру героическим. Отмечу великолепную работу пиротехников — взрывы не выглядят бутафорскими «по-ливийски» (новые реалии создают новую терминологию).
Но признаюсь что, несмотря на все достоинства, фильм быстро забывается и не сразу вспоминается при повторном просмотре. Хотя удовольствие от просмотра это и не уменьшает. Парадокс.
Из бросившихся в глаза деталей — портянки главный герой наматывает неумело, по-детски. Вывод — в армии не служил. Матёрый диверсант, а с портянками не знаком — такое прощается только в комедии.
Встреча полицая и партизан в бронемашине — одна из сильнейших подобных вообще в мировом кинематографе. Вот как надо снимать немые сцены!
Небольшие цитаты:
«будем брать» (всеобщая истина сержанта Цыбули),
«да какое там дело, тикати трэба».
Спасибо коллективу создателей и тем, кто обеспечивает доступность сегодня, за хороший, добротный фильм. Картина достойна длительного хранения на винчестере для целей раздачи дуреющему новому поколению в воспитательных целях.
Формат : AVI
Формат/Информация : Audio Video Interleave
Размер файла : 1,37 Гбайт
Продолжительность : 1 ч. 12 м.
Общий поток : 2697 Кбит/сек
Программа кодирования : FairUse Wizard - http://fairusewizard.com
Библиотека кодирования : The best and REALLY easy backup tool
Видео
Идентификатор : 0
Формат : MPEG-4 Visual
Параметр BVOP формата : 1
Параметр QPel формата : Нет
Параметр GMC формата : Без точки перехода
Параметр матрицы формата : Default (H.263)
Режим смешивания : Сжатый битовый поток
Идентификатор кодека : DX50
Идентификатор кодека/Подсказка : DivX 5
Продолжительность : 1 ч. 12 м.
Битрейт : 2239 Кбит/сек
Ширина : 672 пикс.
Высота : 384 пикс.
Соотношение сторон : 16:9
Частота кадров : 25,000 кадр/сек
Цветовое пространство : YUV
Подвыборка цветности : 4:2:0
Битовая глубина : 8 бит
Тип развёртки : Прогрессивная
Метод сжатия : С потерями
Бит/(Пиксели*Кадры) : 0.347
Размер потока : 1,13 Гбайт (83%)
Библиотека кодирования : DivX 6.8.0 (UTC 2007-12-04)
Аудио
Идентификатор : 1
Формат : AC-3
Формат/Информация : Audio Coding 3
Расширение режима : CM (complete main)
Идентификатор кодека : 2000
Продолжительность : 1 ч. 12 м.
Вид битрейта : Постоянный
Битрейт : 448 Кбит/сек
Каналы : 6 каналов
Расположение каналов : Front: L C R, Side: L R, LFE
Частота : 48,0 КГц
Битовая глубина : 16 бит
Метод сжатия : С потерями
Размер потока : 232 Мбайт (17%)
Выравнивание : Разделение по промежуткам
Продолжительность промежутка : 40 мс. (1,00 видеокадр)
Время предзагрузки промежутка : 500 ms
Источник/Качество: DVDRip
Формат: AVI
Видео кодек: DivX
Аудио кодек: AC3
Видео: 672x384 (1.75:1), 25 fps, DivX Codec 6.8 ~2239 kbps avg, 0.35 bit/pixel
Аудио: 48 kHz, AC3 Dolby Digital, 3/2 (L,C,R,l,r) + LFE ch, ~448 kbps




Download / Скачать

Хотите скачать бесплатно? Зарегистрируйтесь на сайте (ссылка на регистрацию). Pirat.ca - самый быстрый торрент трекер в рунете!

Как скачивать  ·   Что такое торрент  ·   Рейтинг и ограничения

Пост 28-Ноя-2011 10:31 (спустя 23 минуты)

Топик был перенесен из форума Наше Кино в форум Советское кино

Skinwalker
 

CHARLI2236

1089

Пост 13-Дек-2011 13:50 (спустя 15 дней)

[Q] 

спасибо

_________________
[Профиль]  [ЛС] 

Andik-nn

Корсар

Пост 30-Дек-2013 14:09 (спустя 2 года)

[Q] 

Благодарю !COOL!
[Профиль]  [ЛС] 

ZAMOK

Корсар

Пост 30-Май-2014 22:30 (спустя 5 месяцев)

[Q] 

Старый добрый фильм. Лови бочку

_________________
Не бойся того,с чем не сталкивался.
[Профиль]  [ЛС] 

alex denver71

Флибустьер

Пост 21-Ноя-2014 20:07 (спустя 5 месяцев 21 день)

[Q] 

Автору респект!!! Любимый фильм из детства aa
[Профиль]  [ЛС] 

Simsim

Морской Волк

Пост 24-Ноя-2014 08:50 (спустя 2 дня 12 часов)

[Q] 

Спасибо! за все скаченные фильмы из раздела наше кино, советское кино.
[Профиль]  [ЛС] 

lkas1010

Корсар

Пост 19-Дек-2014 19:35 (спустя 25 дней)

[Q] 

Спасибо!!! Лови бочку
[Профиль]  [ЛС] 

cybersash

Морской Волк

Пост 16-Мар-2016 10:12 (спустя 1 год 2 месяца)

[Q] 

Хороший добрый фильм, спасибо
[Профиль]  [ЛС] 

nitro1985

Корсар

Пост 14-Ноя-2016 17:09 (спустя 7 месяцев 29 дней)

[Q] 

спасибо за фильм
Супер!
[Профиль]  [ЛС] 

ossipoff

Корсар

Пост 17-Ноя-2016 17:55 (спустя 3 дня)

[Q] 

Спасибо! Смотреть советские фильмы одно удовольствие...
[Профиль]  [ЛС] 
Показать сообщения:    
Ответить на тему

Текущее время: Сегодня 07:54

Часовой пояс: GMT + 4



Вы не можете начинать темы
Вы не можете отвечать на сообщения
Вы не можете редактировать свои сообщения
Вы не можете удалять свои сообщения
Вы не можете голосовать в опросах
Вы не можете прикреплять файлы к сообщениям
Вы не можете скачивать файлы

▼ Вниз