ML
     
  Уважаемый Гость!
Вы можете поддержать проект и зарегистрироваться у наших партнеров - онлайн-стратегия MyLands. При регистрации в игре Вы получите код, который сможете активировать после регистрации на pirat.ca и получить 1000 дублонов.

Ваш код:
0af2e2107bc9b5dd5ac2c09f9fc25e1a77c43887
 
     

Карьера Димы Горина (Фрунзе Довлатян, Лев Мирский) [1961 г., комедия, DVDRip]

Ответить на тему
 
Автор
Сообщение

Пост 28-Ноя-2011 10:49

[Q] 

kufre

Корсар

Карьера Димы Горина
Год выпуска: 1961
Жанр: комедия
Продолжительность: 01:34:21
Режиссер: Фрунзе Довлатян, Лев Мирский
В ролях: Александр Демьяненко, Татьяна Конюхова, Владимир Высоцкий, Виктор Селезнев, Евгений Кудряшов, Н. Казаков, Алексей Ванин, Ровшан Алиев, Виктор Чекмарев, Ю. Каракаев, В. Маркова, Валентина Ананьина
Описание: В одном большом городе жил Дима Горин, финансовый работник. Перед ним открывались блестящие перспективы: в один прекрасный день он был рекомендован на должность заведующего сберкассой, а там, глядишь, и до поста министра финансов недалеко. Дима и не предполагал, как круто вскоре изменится его судьба. Волею случая он оказался в тайге на строительстве высоковольтной линии электропередач, где решил остаться. А причиной столь неординарного поступка стала встреча с Галиной Березкой, красивой и веселой бригадиршей монтажниц...
Формат : AVI
Формат/Информация : Audio Video Interleave
Размер файла : 1,54 Гбайт
Продолжительность : 1 ч. 34 м.
Общий поток : 2341 Кбит/сек
Программа кодирования : VirtualDubMod 1.5.4.1 (build 2178/release)
Библиотека кодирования : VirtualDubMod build 2178/release
Видео
Идентификатор : 0
Формат : MPEG-4 Visual
Профиль формата : [email protected]
Параметр BVOP формата : 1
Параметр QPel формата : Нет
Параметр GMC формата : Без точки перехода
Параметр матрицы формата : Выборочная
Идентификатор кодека : XVID
Идентификатор кодека/Подсказка : XviD
Продолжительность : 1 ч. 34 м.
Битрейт : 1951 Кбит/сек
Ширина : 720 пикс.
Высота : 544 пикс.
Соотношение сторон : 4:3
Частота кадров : 25,000 кадр/сек
Цветовое пространство : YUV
Подвыборка цветности : 4:2:0
Битовая глубина : 8 бит
Тип развёртки : Прогрессивная
Метод сжатия : С потерями
Бит/(Пиксели*Кадры) : 0.199
Размер потока : 1,29 Гбайт (83%)
Библиотека кодирования : XviD 1.0.1 (UTC 2004-06-05)
Аудио
Идентификатор : 1
Формат : AC-3
Формат/Информация : Audio Coding 3
Расширение режима : CM (complete main)
Идентификатор кодека : 2000
Продолжительность : 1 ч. 34 м.
Вид битрейта : Постоянный
Битрейт : 384 Кбит/сек
Каналы : 6 каналов
Расположение каналов : Front: L C R, Side: L R, LFE
Частота : 48,0 КГц
Битовая глубина : 16 бит
Метод сжатия : С потерями
Размер потока : 259 Мбайт (16%)
Выравнивание : Разделение по промежуткам
Продолжительность промежутка : 96 мс. (2,40 видеокадра)
Время предзагрузки промежутка : 96 ms
Источник/Качество: DVDRip
Формат: AVI
Видео кодек: XviD
Аудио кодек: AC3
Видео: 720x544 (1.32:1), 25 fps, XviD Final 1.0.1 (build 35) ~1950 kbps avg, 0.20 bit/pixel
Аудио: 48 kHz, AC3 Dolby Digital, 3/2 (L,C,R,l,r) + LFE ch, ~384 kbps






Download / Скачать

Хотите скачать бесплатно? Зарегистрируйтесь на сайте (ссылка на регистрацию). Pirat.ca - самый быстрый торрент трекер в рунете!

Как скачивать  ·   Что такое торрент  ·   Рейтинг и ограничения

Пост 28-Ноя-2011 11:40 (спустя 51 минута)

Топик был перенесен из форума Наше Кино в форум Советское кино

Skinwalker
 

Luzhok

Легенда

Пост 29-Ноя-2011 08:40 (спустя 21 час)

[Q] 

kufre,
спасибо!
[Профиль]  [ЛС] 

Jalok

Лоцман

Пост 17-Дек-2011 07:19 (спустя 17 дней)

[Q] 

СпасибО!!!

_________________
Жизнь прекрасна и удивительна!!!
[Профиль]  [ЛС] 

Alexe10

Гроза морей

36

Пост 13-Окт-2014 07:05 (спустя 2 года 9 месяцев)

[Q] 

Классика!
[Профиль]  [ЛС] 

alex denver71

Флибустьер

Пост 21-Ноя-2014 19:52 (спустя 1 месяц 8 дней)

[Q] 

Автору респект!!! Фильм просто-КЛАСС!!! ay
[Профиль]  [ЛС] 

R_O_Z_A

Морской Волк

Пост 26-Фев-2015 22:29 (спустя 3 месяца 5 дней)

[Q] 

СпасибО!!! Автору респект!!!
[Профиль]  [ЛС] 

Семен

Морской Волк

Пост 25-Мар-2015 20:51 (спустя 26 дней)

[Q] 

Демьяненко... класс! К просмотру!!!
[Профиль]  [ЛС] 

cybersash

Морской Волк

Пост 16-Мар-2016 10:11 (спустя 11 месяцев 21 день)

[Q] 

Отличный фильм, спасибо Лови бочку
[Профиль]  [ЛС] 
Показать сообщения:    
Ответить на тему

Текущее время: Сегодня 00:03

Часовой пояс: GMT + 4



Вы не можете начинать темы
Вы не можете отвечать на сообщения
Вы не можете редактировать свои сообщения
Вы не можете удалять свои сообщения
Вы не можете голосовать в опросах
Вы не можете прикреплять файлы к сообщениям
Вы не можете скачивать файлы

▼ Вниз