ML
     
  Уважаемый Гость!
Вы можете поддержать проект и зарегистрироваться у наших партнеров - онлайн-стратегия MyLands. При регистрации в игре Вы получите код, который сможете активировать после регистрации на pirat.ca и получить 1000 дублонов.

Ваш код:
ca44e9295b9b8527ba1c339c20494f70782efea6
 
     

Номер "ЛЮКС" для генерала с девочкой (Александр Александров) [1991 г., Драма, криминал, DVDRip]

Ответить на тему
 
Автор
Сообщение

Пост 30-Ноя-2011 02:21

[Q] 

TrackZEK

Штурман

Номер "ЛЮКС" для генерала с девочкой
Год выпуска: 1991
Производство: СССР, Московское Товарищество "Дягилевъ Центръ"
Жанр: Драма, криминал
Продолжительность: 1:40:43
Режиссер: Александр Александров
В ролях: Константин Воинов, Вячеслава Часова, Аристарх Ливанов, Вячеслав Невинный, Елена Кондулайнен, Геннадий Сайфулин, Владимир Сошальский, Во Хоа Нам, Юрий Любашевский, Вера Васильева, Алексей Дайнеко, Владимир Уан-Зо-Ли
Описание: Почти шестнадцатилетняя Люська (Часова) сбежала из дома, где отчим "лазил ей под юбку", и на суровых дорогах жизни бедовая девчонка познакомилась с карточным шулером с шикарно звучащей фамилией Бристоль (Воинов). Друзья, правда, звали уже далеко не молодого Константина Котей. Мужик он был добрый, и Люська вскоре стала называть его дедушкой. Хорошая, трогательная лента поставлена в комедийно-авантюрном ключе, немного напоминая "Бумажную луну" Питера Богдановича и "Атлантик-сити" Луи Малля одновременно. Старик и почти ребенок (на 5-м месяце беременности) сдружились и вместе "обували лохов" в зимней Гагре. Но работа шулера опасна, и есть люди, которые очень не прочь "попросить" его поделиться...
Доп. информация: Первая роль в кино главной героини Часовой Вячеславы Александровны (в 14 лет)
General
Complete name : C:\Фильмы для раздач\Nomer.luks.dlja.generala.s.devochkoi.1991.XviD.DVDRip.avi
Format : AVI
Format/Info : Audio Video Interleave
File size : 1.37 GiB
Duration : 1h 40mn
Overall bit rate : 1 944 Kbps
Writing application : VirtualDubMod 1.5.10.2 (build 2540/release)
Writing library : VirtualDub build 32593/release
Video
ID : 0
Format : MPEG-4 Visual
Format profile : Advanced [email protected]
Format settings, BVOP : 2
Format settings, QPel : No
Format settings, GMC : No warppoints
Format settings, Matrix : Default (MPEG)
Codec ID : XVID
Codec ID/Hint : XviD
Duration : 1h 40mn
Bit rate : 1 486 Kbps
Width : 688 pixels
Height : 560 pixels
Display aspect ratio : 1.229
Frame rate : 25.000 fps
Color space : YUV
Chroma subsampling : 4:2:0
Bit depth : 8 bits
Scan type : Progressive
Compression mode : Lossy
Bits/(Pixel*Frame) : 0.154
Stream size : 1.05 GiB (76%)
Writing library : XviD 1.2.1 (UTC 2008-12-04)
Audio
ID : 1
Format : AC-3
Format/Info : Audio Coding 3
Mode extension : CM (complete main)
Codec ID : 2000
Duration : 1h 40mn
Bit rate mode : Constant
Bit rate : 448 Kbps
Channel(s) : 6 channels
Channel positions : Front: L C R, Side: L R, LFE
Sampling rate : 48.0 KHz
Bit depth : 16 bits
Compression mode : Lossy
Delay relative to video : 26ms
Stream size : 323 MiB (23%)
Alignment : Split accross interleaves
Interleave, duration : 40 ms (1.00 video frame)
Interleave, preload duration : 500 ms
Источник/Качество: DVDRip
Формат: AVI
Видео кодек: XviD
Аудио кодек: AC3
Видео: XviD, 688х560, 25.0 fps, 1486 Кбит/с 0.154
Аудио: AC3, 48000 Hz, 6 каналов, 448 Кбит/с







Download / Скачать

Хотите скачать бесплатно? Зарегистрируйтесь на сайте (ссылка на регистрацию). Pirat.ca - самый быстрый торрент трекер в рунете!

Как скачивать  ·   Что такое торрент  ·   Рейтинг и ограничения



Последний раз редактировалось: TrackZEK (2011-11-30 09:06), всего редактировалось 2 раз(а)

Пост 30-Ноя-2011 09:56 (спустя 7 часов)

Топик был перенесен из форума Наше Кино в форум Российские фильмы

Skinwalker
 

Wolf111

57059

Пост 12-Янв-2013 18:40 (спустя 1 год 1 месяц)

[Q] 

Помогу с раздачей
[Профиль]  [ЛС] 
Показать сообщения:    
Ответить на тему

Текущее время: Сегодня 16:16

Часовой пояс: GMT + 4



Вы не можете начинать темы
Вы не можете отвечать на сообщения
Вы не можете редактировать свои сообщения
Вы не можете удалять свои сообщения
Вы не можете голосовать в опросах
Вы не можете прикреплять файлы к сообщениям
Вы не можете скачивать файлы

▼ Вниз