ML
     
  Уважаемый Гость!
Вы можете поддержать проект и зарегистрироваться у наших партнеров - онлайн-стратегия MyLands. При регистрации в игре Вы получите код, который сможете активировать после регистрации на pirat.ca и получить 1000 дублонов.

Ваш код:
db0e0ad91548759ffeb9bb88bed405e1a4b3c165
 
     

Самая обаятельная и привлекательная (Геральд Бежанов) [1985 г., комедия, мелодрама, DVDRip]

Ответить на тему
 
Автор
Сообщение

Пост 30-Ноя-2011 21:35

[Q] 

kufre

Корсар

Самая обаятельная и привлекательная
Год выпуска: 1985
Жанр: комедия, мелодрама
Продолжительность: 01:20:18
Режиссер: Геральд Бежанов
В ролях: Ирина Муравьёва — Надя Клюева,Александр Абдулов — Володя Смирнов,Татьяна Васильева — Сусанна,Людмила Иванова — Клавдия Матвеевна,Михаил Кокшенов — Лёша Пряхин,Леонид Куравлёв — Миша Дятлов,Лариса Удовиченко — Люся Виноградова,Владимир Носик — Гена,Лев Перфилов — Пётр Васильевич, начальник Нади,Любовь Соколова — мать Нади,Александр Ширвиндт — Аркадий, муж Сусанны,Вера Сотникова — подруга Володи,Вероника Изотова — попутчица в поезде,Виктор Ильичев — попутчик, муж попутчицы,Виктор Филиппов — милиционер,Игорь Ясулович — фарцовщик,Георгий Мартиросян — друг «работника торговли»,Людмила Карауш
Описание: У инженера Нади Клюевой максимум общественной, но минимум личной жизни. Все меняется, когда она случайно встречает в автобусе свою старую знакомую, школьную одноклассницу Сусанну, ныне работающую социологом на заводе бытовых кондиционеров. Сусанна решает наладить личную жизнь своей подруги, используя научный метод.
Доп. информация: Занимает по посещаемости 56-е место среди отечественных фильмов за всю историю советского кинопроката
Исполнительнице главной роли Ирине Муравьевой сценарий поначалу не понравился совершенно. По ее собственным словам, Муравьевой в тот период хотелось авторского кино, вдумчивого, серьезного. А зарисовки из жизни конструкторского бюро казались чем-то слишком мелким, очередным советским фильмом про ударников производства. Только спустя годы актриса, случайно увидев фильм, влюбилась в него не меньше, чем зрители.
Сусанна дает Наде анкеты «для последующей обработки на ЭВМ» зеленого и желтого цветов. А когда Надя заполняет «анкету на Володю» в кадре она то зеленого, то белого цвета.
Фильм «Самая обаятельная и привлекательная» имел большой зрительский успех, его посмотрели 44,9 млн зрителей
Вместо Аманды Лир (по телевизору у фарцовщика) поёт Лариса Долина (Данные взяты из книги историка Ф.Раззакова «Досье на звёзд»).
В эпизоде, где Надя заполняет анкеты по заданию Сусанны, меломан Володя слушает в плеере композицию латышской группы «Зодиак», звучавшую также в более раннем фильме «Карнавал», в котором героиня Муравьёвой тоже потерпела неудачу с героем Абдулова. Намеренный это отсыл или случайность — неизвестно.
Троих сотрудников отправляют в командировку в Сущевск, но населённого пункта с таким названием в России нет.
Композитор - Владимир Рубашевский
Формат : AVI
Формат/Информация : Audio Video Interleave
Размер файла : 1,37 Гбайт
Продолжительность : 1 ч. 20 м.
Общий поток : 2438 Кбит/сек
Программа кодирования : VirtualDubMod 1.5.4.1 (build 2178/release)
Библиотека кодирования : VirtualDubMod build 2178/release
Видео
Идентификатор : 0
Формат : MPEG-4 Visual
Параметр BVOP формата : Нет
Параметр QPel формата : Нет
Параметр GMC формата : Без точки перехода
Параметр матрицы формата : Default (H.263)
Идентификатор кодека : DX50
Идентификатор кодека/Подсказка : DivX 5
Продолжительность : 1 ч. 20 м.
Битрейт : 1982 Кбит/сек
Ширина : 720 пикс.
Высота : 304 пикс.
Соотношение сторон : 2,35:1
Частота кадров : 29,970 кадр/сек
Цветовое пространство : YUV
Подвыборка цветности : 4:2:0
Битовая глубина : 8 бит
Тип развёртки : Прогрессивная
Метод сжатия : С потерями
Бит/(Пиксели*Кадры) : 0.302
Размер потока : 1,11 Гбайт (81%)
Библиотека кодирования : DivX 5.2.1 (WaffleDay) (UTC 2004-09-08)
Аудио
Идентификатор : 1
Формат : AC-3
Формат/Информация : Audio Coding 3
Расширение режима : CM (complete main)
Идентификатор кодека : 2000
Продолжительность : 1 ч. 20 м.
Вид битрейта : Постоянный
Битрейт : 448 Кбит/сек
Каналы : 6 каналов
Расположение каналов : Front: L C R, Side: L R, LFE
Частота : 48,0 КГц
Битовая глубина : 16 бит
Метод сжатия : С потерями
Задержка видео : 2 с. 68 мс.
Размер потока : 257 Мбайт (18%)
Выравнивание : Разделение по промежуткам
Продолжительность промежутка : 96 мс. (2,88 видеокадра)
Время предзагрузки промежутка : 96 ms
Источник/Качество: DVDRip
Формат: AVI
Видео кодек: DivX
Аудио кодек: AC3
Видео: 720x304 (2.37:1), 29.970 fps, DivX Codec 5.2.1 build 1328 ~1982 kbps avg, 0.30 bit/pixel
Аудио: 48 kHz, AC3 Dolby Digital, 3/2 (L,C,R,l,r) + LFE ch, ~448 kbps







Download / Скачать

Хотите скачать бесплатно? Зарегистрируйтесь на сайте (ссылка на регистрацию). Pirat.ca - самый быстрый торрент трекер в рунете!

Как скачивать  ·   Что такое торрент  ·   Рейтинг и ограничения

Пост 01-Дек-2011 06:28 (спустя 8 часов)

Топик был перенесен из форума Наше Кино в форум Советское кино

Skinwalker
 

Creed72

9783

Пост 19-Фев-2012 05:40 (спустя 2 месяца 18 дней)

[Q] 


_________________
Я мзду не беру. Мне за Державу обидно.(с)
[Профиль]  [ЛС] 

Polosatyk

Корсар

563

Пост 19-Фев-2012 09:31 (спустя 3 часа)

[Q] 

спасибо!
[Профиль]  [ЛС] 

abc7

Гроза морей

464

Пост 18-Мар-2012 18:53 (спустя 28 дней)

[Q] 

[Профиль]  [ЛС] 

wirtual

Гроза морей

Пост 12-Апр-2012 18:31 (спустя 24 дня)

[Q] 


_________________
не будешь делиться - останешься одноклеточным
[Профиль]  [ЛС] 

PaulCONS

Лоцман

Пост 29-Авг-2012 21:13 (спустя 4 месяца 17 дней)

[Q] 

[Профиль]  [ЛС] 

LORD OR

Корсар

Пост 12-Ноя-2012 22:19 (спустя 2 месяца 14 дней)

[Q] 

[Профиль]  [ЛС] 

Димарик82

Корсар

725

Пост 15-Ноя-2012 00:39 (спустя 2 дня 2 часа)

[Q] 

[Профиль]  [ЛС] 

ivan.tratil 67

Корсар

Пост 01-Янв-2013 21:41 (спустя 1 месяц 16 дней)

[Q] 

[Профиль]  [ЛС] 

SvetaM

Гроза морей

238

Пост 01-Май-2013 12:01 (спустя 3 месяца 29 дней)

[Q] 


_________________
[Профиль]  [ЛС] 

SvetaM

Гроза морей

238

Пост 01-Май-2013 12:02 (спустя 1 минута)

[Q] 


_________________
[Профиль]  [ЛС] 

SvetaM

Гроза морей

238

Пост 01-Май-2013 12:04 (спустя 1 минута)

[Q] 


_________________
[Профиль]  [ЛС] 
Показать сообщения:    
Ответить на тему

Текущее время: Сегодня 08:10

Часовой пояс: GMT + 4



Вы не можете начинать темы
Вы не можете отвечать на сообщения
Вы не можете редактировать свои сообщения
Вы не можете удалять свои сообщения
Вы не можете голосовать в опросах
Вы не можете прикреплять файлы к сообщениям
Вы не можете скачивать файлы

▼ Вниз