ML
     
  Уважаемый Гость!
Вы можете поддержать проект и зарегистрироваться у наших партнеров - онлайн-стратегия MyLands. При регистрации в игре Вы получите код, который сможете активировать после регистрации на pirat.ca и получить 1000 дублонов.

Ваш код:
2932e5898d0a27592397f70b82a5834d1e70ea19
 
     

В зоне особого внимания (Андрей Малюков) [1977 г., военный, приключения, DVDRip]

Ответить на тему
 
Автор
Сообщение

Пост 02-Дек-2011 07:25

[Q] 

kufre

Корсар

В зоне особого внимания
Год выпуска: 1977
Жанр: военный, приключения
Продолжительность: 01:32:18
Режиссер: Андрей Малюков
В ролях: Борис Галкин, Михай Волонтир, Сергей Волкаш, Игорь Иванов, Анатолий Кузнецов, Александр Пятков, Елена Цыплакова, Юрий Чернов, Александр Гай, Николай Крюков, Елена Кузьмина, Владимир Заманский, Анатолий Веденкин, Михаил Кокшенов, Сергей Подгорный
Описание: Во время военных учений командир гвардейского полка направляет в тыл «врага» три диверсионные группы для обнаружения и захвата замаскированного командного пункта. Срок исполнения — двое суток. Разведчики выполняют задание в условиях, максимально приближенных к боевым…
Доп. информация: Егоров на бегу поёт песню из мультфильма «Винни Пух». В реальной жизни, при беге (а особенно при марш-броске) нельзя петь. Даже говорить нельзя — от пения или разговора теряется дыхание. Разведчики ВДВ не носят голубые береты на задания. Они носят маскировочные шапочки и маски, но генерал Маргелов лично потребовал, чтобы были голубые береты.
В фильме самолёты не имеют опознавательных знаков. В советсой армии использовались Ил-76 Аэрофлота, потому что так можно было летать за границу коммерческими рейсами, но всё-таки нельзя было показать, что Аэрофлот — военная организация. И поэтому самолёты перекрашивались вручную в каждом кадре.
В фильме было вырезанно много моментов (в том числе и документальных), из-за соображений секретности. К сожалению, весь этот материал был уничтожен в процессе монтажа. Поэтому режиссёрской версии никогда не будет.
Интересен тот факт, что актёр Волонтир играет некоего прапорщика Волентира.
Актёр Волкош указан в титрах как Волкаш.
В конце фильма звучит песня десантников «Лишь недавно учились мы…».
НИКТО,КРОМЕ НАС!
Формат : AVI
Формат/Информация : Audio Video Interleave
Размер файла : 1,37 Гбайт
Продолжительность : 1 ч. 32 м.
Общий поток : 2117 Кбит/сек
Программа кодирования : VirtualDubMod 1.5.4.1 (build 2178/release)
Библиотека кодирования : VirtualDubMod build 2178/release
Видео
Идентификатор : 0
Формат : MPEG-4 Visual
Профиль формата : Advanced [email protected]
Параметр BVOP формата : 1
Параметр QPel формата : Нет
Параметр GMC формата : Без точки перехода
Параметр матрицы формата : Выборочная
Идентификатор кодека : XVID
Идентификатор кодека/Подсказка : XviD
Продолжительность : 1 ч. 32 м.
Битрейт : 1918 Кбит/сек
Ширина : 720 пикс.
Высота : 384 пикс.
Соотношение сторон : 1,875
Частота кадров : 25,000 кадр/сек
Цветовое пространство : YUV
Подвыборка цветности : 4:2:0
Битовая глубина : 8 бит
Тип развёртки : Прогрессивная
Метод сжатия : С потерями
Бит/(Пиксели*Кадры) : 0.278
Размер потока : 1,24 Гбайт (91%)
Библиотека кодирования : XviD 1.2.0.dev47 (UTC 2006-11-01)
Аудио
Идентификатор : 1
Формат : AC-3
Формат/Информация : Audio Coding 3
Расширение режима : CM (complete main)
Идентификатор кодека : 2000
Продолжительность : 1 ч. 32 м.
Вид битрейта : Постоянный
Битрейт : 192 Кбит/сек
Каналы : 2 канала
Расположение каналов : Front: L R
Частота : 48,0 КГц
Битовая глубина : 16 бит
Метод сжатия : С потерями
Размер потока : 127 Мбайт (9%)
Выравнивание : Разделение по промежуткам
Продолжительность промежутка : 96 мс. (2,40 видеокадра)
Время предзагрузки промежутка : 96 ms
Язык : Russian
Источник/Качество: DVDRip
Формат: AVI
Видео кодек: XviD
Аудио кодек: AC3
Видео: 720x384 (1.88:1), 25 fps, XviD build 47 ~1918 kbps avg, 0.28 bit/pixel
Аудио: 48 kHz, AC3 Dolby Digital, 2/0 (L,R) ch, ~192 kbps
Download / Скачать

Хотите скачать бесплатно? Зарегистрируйтесь на сайте (ссылка на регистрацию). Pirat.ca - самый быстрый торрент трекер в рунете!

Как скачивать  ·   Что такое торрент  ·   Рейтинг и ограничения



Последний раз редактировалось: kufre (2011-12-02 13:07), всего редактировалось 1 раз

Пост 02-Дек-2011 09:23 (спустя 1 час 57 минут)

Топик был перенесен из форума Наше Кино в форум Советское кино

Skinwalker
 

Luzhok

Легенда

Пост 02-Дек-2011 18:11 (спустя 10 часов)

[Q] 

kufre,
спасибо
[Профиль]  [ЛС] 

CHARLI2236

1096

Пост 13-Дек-2011 13:48 (спустя 10 дней)

[Q] 

спасибо

_________________
[Профиль]  [ЛС] 

Амба Снежный

Штурман

Пост 12-Сен-2012 10:24 (спустя 8 месяцев 29 дней)

[Q] 

[Профиль]  [ЛС] 

LORD OR

Корсар

Пост 12-Ноя-2012 22:06 (спустя 2 месяца)

[Q] 

[Профиль]  [ЛС] 

Bubailo

Штурман

Пост 27-Ноя-2012 21:32 (спустя 14 дней)

[Q] 

[Профиль]  [ЛС] 
Показать сообщения:    
Ответить на тему

Текущее время: Сегодня 08:04

Часовой пояс: GMT + 4



Вы не можете начинать темы
Вы не можете отвечать на сообщения
Вы не можете редактировать свои сообщения
Вы не можете удалять свои сообщения
Вы не можете голосовать в опросах
Вы не можете прикреплять файлы к сообщениям
Вы не можете скачивать файлы

▼ Вниз