ML
     
  Уважаемый Гость!
Вы можете поддержать проект и зарегистрироваться у наших партнеров - онлайн-стратегия MyLands. При регистрации в игре Вы получите код, который сможете активировать после регистрации на pirat.ca и получить 1000 дублонов.

Ваш код:
0af2e2107bc9b5dd5ac2c09f9fc25e1a77c43887
 
     

Ответный ход (Михаил Туманишвили) [1981 г., приключения, военный, DVDRip]

Ответить на тему
 
Автор
Сообщение

Пост 02-Дек-2011 07:48

[Q] 

kufre

Корсар

Ответный ход
Год выпуска: 1981
Жанр: приключения, военный
Продолжительность: 01:19:42
Режиссер: Михаил Туманишвили
В ролях: Борис Галкин, Михай Волонтир, Анатолий Ромашин, Александр Пятков, Анатолий Кузнецов, Чигарев Михаил, Маренков Владимир, Вадим Спиридонов, Даниил Нетребин, Леонид Белозорович, Глебова Елена, Лаймонас Норейка
Описание: Командование южных решает послать в тыл северных диверсионную группу в составе Тарасова, Волентира и двух морпехов: Швеца и Зиновьевой. Диверсанты захватывают подполковника Морошкина из группы «Северных», который намеренно подставился, спрятав на теле скрытый передатчик. Тарасов разгадывает замысел, его группа проникает на аэродром северных и отбирает секретные документы у офицера северных. Лыков преследует диверсантов на бронетранспортёре, Волентир ослепляет БТР, машина разносит мост и падает в болото, Волентир тяжело ранен обломками моста. Швец и Тарасов помогают северным вылезти из машины, Зиновьева едет на побережье и передаёт документы. Южные переходят в победоносное наступление.
Доп. информация: Сцены на аэродроме «Северных» снимались на аэродроме истребительной авиации ПВО Бельбек. При этом в кадре несколько раз появляются истребители-перехватчики Су-15.
НИКТО,КРОМЕ НАС!
Формат : AVI
Формат/Информация : Audio Video Interleave
Размер файла : 1,37 Гбайт
Продолжительность : 1 ч. 19 м.
Общий поток : 2456 Кбит/сек
Программа кодирования : VirtualDubMod 1.5.4.1 (build 2178/release)
Библиотека кодирования : VirtualDubMod build 2178/release
Видео
Идентификатор : 0
Формат : MPEG-4 Visual
Профиль формата : [email protected]
Параметр BVOP формата : 1
Параметр QPel формата : Нет
Параметр GMC формата : Без точки перехода
Параметр матрицы формата : Выборочная
Идентификатор кодека : XVID
Идентификатор кодека/Подсказка : XviD
Продолжительность : 1 ч. 19 м.
Битрейт : 2257 Кбит/сек
Ширина : 704 пикс.
Высота : 400 пикс.
Соотношение сторон : 16:9
Частота кадров : 25,000 кадр/сек
Цветовое пространство : YUV
Подвыборка цветности : 4:2:0
Битовая глубина : 8 бит
Тип развёртки : Прогрессивная
Метод сжатия : С потерями
Бит/(Пиксели*Кадры) : 0.321
Размер потока : 1,26 Гбайт (92%)
Библиотека кодирования : XviD 1.0.3 (UTC 2004-12-20)
Аудио
Идентификатор : 1
Формат : AC-3
Формат/Информация : Audio Coding 3
Расширение режима : CM (complete main)
Идентификатор кодека : 2000
Продолжительность : 1 ч. 19 м.
Вид битрейта : Постоянный
Битрейт : 192 Кбит/сек
Каналы : 2 канала
Расположение каналов : Front: L R
Частота : 48,0 КГц
Битовая глубина : 16 бит
Метод сжатия : С потерями
Размер потока : 109 Мбайт (8%)
Выравнивание : Разделение по промежуткам
Продолжительность промежутка : 96 мс. (2,40 видеокадра)
Время предзагрузки промежутка : 96 ms
Язык : Russian
Источник/Качество: DVDRip
Формат: AVI
Видео кодек: XviD
Аудио кодек: AC3
Видео: 704x400 (1.76:1), 25 fps, XviD Final 1.0.3 (build 37) ~2257 kbps avg, 0.32 bit/pixel
Аудио: 48 kHz, AC3 Dolby Digital, 2/0 (L,R) ch, ~192 kbps





Download / Скачать

Хотите скачать бесплатно? Зарегистрируйтесь на сайте (ссылка на регистрацию). Pirat.ca - самый быстрый торрент трекер в рунете!

Как скачивать  ·   Что такое торрент  ·   Рейтинг и ограничения



Последний раз редактировалось: kufre (2011-12-02 13:08), всего редактировалось 1 раз

Пост 02-Дек-2011 09:20 (спустя 1 час 31 минута)

Топик был перенесен из форума Наше Кино в форум Советское кино

Skinwalker
 

Xenobius

Лоцман

Пост 05-Дек-2011 08:10 (спустя 3 дня)

[Q] 

Огромное спасибо за фильм!
[Профиль]  [ЛС] 

CHARLI2236

1097

Пост 13-Дек-2011 13:47 (спустя 8 дней)

[Q] 

спасибо

_________________
[Профиль]  [ЛС] 

garis

Шкипер

Пост 23-Июн-2014 11:27 (спустя 2 года 6 месяцев)

[Q] 

спасибо большое!!!
[Профиль]  [ЛС] 

be2014

Юнга

Пост 28-Июн-2014 01:37 (спустя 4 дня)

[Q] 

спасибо за труд ,,,,
[Профиль]  [ЛС] 

U-858

Флибустьер

Пост 13-Апр-2015 00:08 (спустя 9 месяцев 14 дней)

[Q] 

Спасибо Лови бочку
[Профиль]  [ЛС] 

polyk

Флибустьер

Пост 29-Сен-2015 23:54 (спустя 5 месяцев 16 дней)

[Q] 

хорошее патриотичное кино
[Профиль]  [ЛС] 

tubuc

Корсар

103

Пост 21-Авг-2016 18:08 (спустя 10 месяцев 21 день)

[Q] 

В детстве смотрели, в коллекцию
[Профиль]  [ЛС] 
Показать сообщения:    
Ответить на тему

Текущее время: Сегодня 00:06

Часовой пояс: GMT + 4



Вы не можете начинать темы
Вы не можете отвечать на сообщения
Вы не можете редактировать свои сообщения
Вы не можете удалять свои сообщения
Вы не можете голосовать в опросах
Вы не можете прикреплять файлы к сообщениям
Вы не можете скачивать файлы

▼ Вниз