ML
     
  Уважаемый Гость!
Вы можете поддержать проект и зарегистрироваться у наших партнеров - онлайн-стратегия MyLands. При регистрации в игре Вы получите код, который сможете активировать после регистрации на pirat.ca и получить 1000 дублонов.

Ваш код:
e93cd9e43017f251127f220889864c05934e61c6
 
     

Перехват (Сергей Тарасов) [1986 г., боевик, DVDRip]

Ответить на тему
 
Автор
Сообщение

Пост 03-Дек-2011 17:57

[Q] 

kufre

Корсар

Перехват
Год выпуска: 1986
Жанр: боевик
Продолжительность: 01:22:19
Режиссер: Сергей Тарасов
В ролях: Владимир Меньшов, Андрей Ростоцкий, Борис Химичев, Борис Хмельницкий, Пауль Буткевич, Лeoнид Кулaгин, Aльгимaнтac Macюлиc, Юрий Смирнов, Яна Друзь, Николай Мерзликин
Описание: В иностранной разведке разрабатывают план, по которому на территорию Советского Союза внедряется опытный агент, нацеленный вывести из строя стратегически важную антенну на территории космической базы. Все продумано до мелочей, но у прибрежного маяка, куда высаживается диверсант, его замечает пограничник Алексей Бахтеев.
Он докладывает о нарушителе на базу и продолжает его преследование. Физически выносливому и прекрасно подготовленному террористу легко удается затеряться в толпе людей. И только благодаря усилиям самоотверженного Алексея удается задержать диверсанта.
Формат : AVI
Формат/Информация : Audio Video Interleave
Размер файла : 1,37 Гбайт
Продолжительность : 1 ч. 22 м.
Общий поток : 2377 Кбит/сек
Программа кодирования : VirtualDubModRus 1.5.10.2 (build 2542/release)
Библиотека кодирования : VirtualDubMod build 2542/release
Видео
Идентификатор : 0
Формат : MPEG-4 Visual
Параметр BVOP формата : Да
Параметр QPel формата : Нет
Параметр GMC формата : Без точки перехода
Параметр матрицы формата : Default (H.263)
Идентификатор кодека : DX50
Идентификатор кодека/Подсказка : DivX 5
Продолжительность : 1 ч. 22 м.
Битрейт : 2175 Кбит/сек
Ширина : 720 пикс.
Высота : 384 пикс.
Соотношение сторон : 1,875
Частота кадров : 25,000 кадр/сек
Цветовое пространство : YUV
Подвыборка цветности : 4:2:0
Битовая глубина : 8 бит
Тип развёртки : Прогрессивная
Метод сжатия : С потерями
Бит/(Пиксели*Кадры) : 0.315
Размер потока : 1,25 Гбайт (92%)
Библиотека кодирования : DivX 6.8.3-6.8.4 (UTC 2008-06-07)
Аудио
Идентификатор : 1
Формат : AC-3
Формат/Информация : Audio Coding 3
Расширение режима : CM (complete main)
Идентификатор кодека : 2000
Продолжительность : 1 ч. 22 м.
Вид битрейта : Постоянный
Битрейт : 192 Кбит/сек
Каналы : 2 канала
Расположение каналов : Front: L R
Частота : 48,0 КГц
Битовая глубина : 16 бит
Метод сжатия : С потерями
Размер потока : 113 Мбайт (8%)
Выравнивание : Соединение по промежуткам
Продолжительность промежутка : 40 мс. (1,00 видеокадр)
Время предзагрузки промежутка : 512 ms
Источник/Качество: DVDRip
Формат: AVI
Видео кодек: DivX
Аудио кодек: AC3
Видео: 720x384 (1.88:1), 25 fps, DivX Codec 6.8.3 ~2174 kbps avg, 0.31 bit/pixel
Аудио: 48 kHz, AC3 Dolby Digital, 2/0 (L,R) ch, ~192 kbps






Download / Скачать

Хотите скачать бесплатно? Зарегистрируйтесь на сайте (ссылка на регистрацию). Pirat.ca - самый быстрый торрент трекер в рунете!

Как скачивать  ·   Что такое торрент  ·   Рейтинг и ограничения

Пост 18-Мар-2012 14:53 (спустя 3 месяца 14 дней)

Топик был перенесен из форума Наше Кино в форум Советское кино

ara1205
 

abc7

Гроза морей

464

Пост 20-Мар-2012 06:21 (спустя 3 месяца 16 дней)

[Q] 

[Профиль]  [ЛС] 
Показать сообщения:    
Ответить на тему

Текущее время: Сегодня 04:29

Часовой пояс: GMT + 4



Вы не можете начинать темы
Вы не можете отвечать на сообщения
Вы не можете редактировать свои сообщения
Вы не можете удалять свои сообщения
Вы не можете голосовать в опросах
Вы не можете прикреплять файлы к сообщениям
Вы не можете скачивать файлы

▼ Вниз