ML
     
  Уважаемый Гость!
Вы можете поддержать проект и зарегистрироваться у наших партнеров - онлайн-стратегия MyLands. При регистрации в игре Вы получите код, который сможете активировать после регистрации на pirat.ca и получить 1000 дублонов.

Ваш код:
cc3be08b7507661c03e0a2f582d0da3a659ea55a
 
     

Продавец воздуха [2 серии] (Владимир Рябцев) [1967 г., Приключения, Фантастика, Детектив, DVDRip]

Ответить на тему
 
Автор
Сообщение

Пост 25-Мар-2012 10:05

[Q] 

megamastor

Продавец воздуха [2 серии]
Год выпуска: 1967
Жанр: Приключения, Фантастика, Детектив
Продолжительность: 01:38:03
Режиссер: Владимир Рябцев
В ролях: Глеб Стриженов (...Вильямс), Артем Карапетян (...Бейли), Александр Суснин (...Николай), Евгений Жариков (...Люк), Павел Кадочников (...профессор Энгельбрект), Геннадий Нилов (...Виктор Клименко), Валентина Титова (...Нора Энгельбрект), Рудольф Мухин (...охранник)
Описание: По мотивам одноименной фантастической повести Александра Беляева о предприимчивых дельцах, которые занялись продажей сжатого воздуха и вовлекли в эту затею двух ученых.
Некий предприниматель Бейли построил на острове подземный завод, на котором превращает атмосферу Земли в твердые шарики для последующей продажи. На этот завод случайно попадает советский геолог Виктор Клименко с товарищем Николаем и возвращает воздух людям.
Источник/Качество: DVDRip
Формат: AVI
Видео кодек: DivX
Аудио кодек: MP3
Видео: DivX 5.0.5 576x448 (1.29:1); 25 fps; 1826 Кбит/с; 0.28 bit/pixel
Аудио: MPEG Layer 3 48kHz; стерео; mp3, 160 kbit/s
Общее
Полное имя : D:\Piratca\Repair\Prodavetz_vozduha.avi
Формат : AVI
Формат/Информация : Audio Video Interleave
Размер файла : 1,37 Гбайт
Продолжительность : 1 ч. 38 м.
Общий поток : 1997 Кбит/сек
Программа кодирования : VirtualDubMod 1.5.1.1a (build 1639/release)
Библиотека кодирования : VirtualDubMod build 1639/release
Видео
Идентификатор : 0
Формат : MPEG-4 Visual
Параметр BVOP формата : 1
Параметр QPel формата : Нет
Параметр GMC формата : Без точки перехода
Параметр матрицы формата : Default (H.263)
Режим смешивания : Сжатый битовый поток
Идентификатор кодека : DX50
Идентификатор кодека/Подсказка : DivX 5
Продолжительность : 1 ч. 38 м.
Битрейт : 1827 Кбит/сек
Ширина : 576 пикселей
Высота : 448 пикселей
Соотношение сторон : 1,286
Частота кадров : 25,000 кадров/сек
Цветовое пространство : YUV
Субдискретизация насыщенности : 4:2:0
Битовая глубина : 8 бит
Тип развёртки : Прогрессивная
Метод сжатия : С потерями
Бит/(Пиксели*Кадры) : 0.283
Размер потока : 1,25 Гбайт (92%)
Библиотека кодирования : DivX 5.0.5 (UTC 2003-04-24)
Аудио
Идентификатор : 1
Формат : MPEG Audio
Версия формата : Version 1
Профиль формата : Layer 3
Режим : Joint stereo
Расширение режима : MS Stereo
Идентификатор кодека : 55
Идентификатор кодека/Подсказка : MP3
Продолжительность : 1 ч. 38 м.
Вид битрейта : Постоянный
Битрейт : 160 Кбит/сек
Каналы : 2 канала
Частота : 48,0 КГц
Метод сжатия : С потерями
Размер потока : 112 Мбайт (8%)
Выравнивание : Соединение по промежуткам
Продолжительность промежутка : 40 мс. (1,00 видеокадр)
Время предзагрузки промежутка : 480 мс.
Download / Скачать

Хотите скачать бесплатно? Зарегистрируйтесь на сайте (ссылка на регистрацию). Pirat.ca - самый быстрый торрент трекер в рунете!

Как скачивать  ·   Что такое торрент  ·   Рейтинг и ограничения

Пост 25-Мар-2012 10:56 (спустя 51 минута)

Топик был перенесен из форума Наше Кино в форум Советское кино

ara1205
 

jumpersky

Легенда

Пост 25-Мар-2012 17:42 (спустя 7 часов)

[Q] 

[Профиль]  [ЛС] 

abc7

Гроза морей

464

Пост 27-Апр-2012 01:06 (спустя 1 месяц 1 день)

[Q] 

[Профиль]  [ЛС] 
Показать сообщения:    
Ответить на тему

Текущее время: Сегодня 05:09

Часовой пояс: GMT + 4



Вы не можете начинать темы
Вы не можете отвечать на сообщения
Вы не можете редактировать свои сообщения
Вы не можете удалять свои сообщения
Вы не можете голосовать в опросах
Вы не можете прикреплять файлы к сообщениям
Вы не можете скачивать файлы

▼ Вниз