ML
     
  Уважаемый Гость!
Вы можете поддержать проект и зарегистрироваться у наших партнеров - онлайн-стратегия MyLands. При регистрации в игре Вы получите код, который сможете активировать после регистрации на pirat.ca и получить 1000 дублонов.

Ваш код:
e93cd9e43017f251127f220889864c05934e61c6
 
     

Авария - дочь мента (Михаил Туманишвили) [1989 г., Драма, DVDRip]

Ответить на тему
 
Автор
Сообщение

Пост 25-Мар-2012 10:21

[Q] 

megamastor

Авария - дочь мента
Год выпуска: 1989
Жанр: Драма
Продолжительность: 01:33:17
Режиссер: Михаил Туманишвили
В ролях: Оксана Арбузова, Владимир Ильин, Анастасия Вознесенская, Николай Пастухов, Борис Романов, Олег Харитонов, Любовь Соколова, Игорь Нефедов, Сергей Воробьев, Александр Потапов, Алиса Признякова, Юрий Коротков, Владимир Басов-мл., Ольга Жукова, Мария Виноградова, Валентина Березуцкая
Описание: Авария — школьница, малолетняя металлистка,тогда как её отец простой советский милиционер Алексей Николаев, который с одной стороны вынужден по долгу службы отлавливать таких как она «неформалов», а с другой — вытаскивать свою дочь из СИЗО. Конфликт отца и дочери предопределен сменой эпох, когда даже школьные учителя не могут ответить ученикам почему они еще вчера говорили одно, а теперь другое. Лихая жизнь, в которой находится место и уходам из дома, и порезанным венам, доводит Аварию до группового изнасилования бандой мажоров. Несчастье примиряет отца и дочь. Теперь милиционер Николаев мстит насильникам, инсценируя ДТП
Доп. информация: * Первоначально главная роль в фильме была предложена Наталье Гусевой, главной героине фильма «Гостья из будущего», но, прочитав сценарий, она отказалась от роли, мотивировав это тем, что не хочет марать сценой изнасилования чистый и светлый образ Алисы Селезнёвой, сыгранный ею ранее.
* Оксана Арбузова — исполнительница роли главной героини фильма — «неформалки» и «оторвы», в настоящее время замужем за Иваном Охлобыстиным и растит шестерых детей
* Сценарий, напечатанный в журнале «Парус» годом ранее, достаточно сильно отличается от фильма. В частности, отец Аварии по первоначальному замыслу погибал, а в сцене, где Авария смотрит музыкальный клип по ТВ, фигурирует популярная отечественная «Ария», а не зарубежные исполнители «Стив Томсон», «Sigue Sigue Sputnik».
Источник/Качество: DVDRip
Формат: AVI
Видео кодек: XviD
Аудио кодек: AC3
Видео: 704x512 (1.38:1), 25 fps, XviD ~2035 kbps avg, 0.23 bit/pixel
Аудио: 48 kHz, AC3 Dolby Digital, 2/0 (L,R) ch, ~192.00 kbps avg
Общее
Полное имя : D:\Piratca\Repair\Avariya.doch.menta.1989.avi
Формат : AVI
Формат/Информация : Audio Video Interleave
Размер файла : 1,46 Гбайт
Продолжительность : 1 ч. 33 м.
Общий поток : 2237 Кбит/сек
Название фильма : Авария дочь мента
Режиссёр : zim2001
Программа кодирования : VirtualDubMod 1.5.10.2 (build 2540/release)
Правообладатель : torrents.ru
Видео
Идентификатор : 0
Формат : MPEG-4 Visual
Профиль формата : Advanced [email protected]
Параметр BVOP формата : 1
Параметр QPel формата : Нет
Параметр GMC формата : Без точки перехода
Параметр матрицы формата : Default (MPEG)
Идентификатор кодека : XVID
Идентификатор кодека/Подсказка : XviD
Продолжительность : 1 ч. 33 м.
Битрейт : 2036 Кбит/сек
Ширина : 704 пикселя
Высота : 512 пикселей
Соотношение сторон : 1,375
Частота кадров : 25,000 кадров/сек
Цветовое пространство : YUV
Субдискретизация насыщенности : 4:2:0
Битовая глубина : 8 бит
Тип развёртки : Прогрессивная
Метод сжатия : С потерями
Бит/(Пиксели*Кадры) : 0.226
Размер потока : 1,33 Гбайт (91%)
Библиотека кодирования : XviD 1.2.0.dev47 (UTC 2006-11-01)
Аудио
Идентификатор : 1
Формат : AC-3
Формат/Информация : Audio Coding 3
Расширение режима : CM (complete main)
Идентификатор кодека : 2000
Продолжительность : 1 ч. 33 м.
Вид битрейта : Постоянный
Битрейт : 192 Кбит/сек
Каналы : 2 канала
Расположение каналов : Front: L R
Частота : 48,0 КГц
Битовая глубина : 16 бит
Метод сжатия : С потерями
Размер потока : 128 Мбайт (9%)
Выравнивание : Разделение по промежуткам
Продолжительность промежутка : 40 мс. (1,00 видеокадр)
Время предзагрузки промежутка : 500 мс.
Download / Скачать

Хотите скачать бесплатно? Зарегистрируйтесь на сайте (ссылка на регистрацию). Pirat.ca - самый быстрый торрент трекер в рунете!

Как скачивать  ·   Что такое торрент  ·   Рейтинг и ограничения

Пост 25-Мар-2012 10:57 (спустя 36 минут)

Топик был перенесен из форума Наше Кино в форум Советское кино

ara1205
 

exsmo

Морской Волк

Пост 25-Мар-2012 12:50 (спустя 2 часа 29 минут)

[Q] 

Спасибо хороший фильм.

_________________
[Профиль]  [ЛС] 

jumpersky

Легенда

Пост 25-Мар-2012 17:41 (спустя 4 часа)

[Q] 

[Профиль]  [ЛС] 

abc7

Гроза морей

464

Пост 27-Апр-2012 01:05 (спустя 1 месяц 1 день)

[Q] 

[Профиль]  [ЛС] 

AndyFox

Корсар

376

Пост 21-Ноя-2012 12:53 (спустя 6 месяцев 24 дня)

[Q] 

Жизненный фильм!

_________________
Torrent.
[Профиль]  [ЛС] 
Показать сообщения:    
Ответить на тему

Текущее время: Сегодня 04:25

Часовой пояс: GMT + 4



Вы не можете начинать темы
Вы не можете отвечать на сообщения
Вы не можете редактировать свои сообщения
Вы не можете удалять свои сообщения
Вы не можете голосовать в опросах
Вы не можете прикреплять файлы к сообщениям
Вы не можете скачивать файлы

▼ Вниз