ML
     
  Уважаемый Гость!
Вы можете поддержать проект и зарегистрироваться у наших партнеров - онлайн-стратегия MyLands. При регистрации в игре Вы получите код, который сможете активировать после регистрации на pirat.ca и получить 1000 дублонов.

Ваш код:
4fbd9898b6f10799a3e8edf60f31febd2bc15453
 
     

Зеленый фургон (Александр Павловский) [1983 г., драма, приключения, DVDRip]

Ответить на тему
 
Автор
Сообщение

Пост 27-Мар-2012 22:32

[Q] 

kufre

Корсар

Зеленый фургон
Год выпуска: 1983
Жанр: драма, приключения
Продолжительность: 01:07:22 + 01:09:25
Режиссер: Александр Павловский
В ролях: Дмитрий Харатьян, Борислав Брондуков, Александр Демьяненко, Александр Соловьев, Регимантас Адомайтис, Константин Григорьев, Эдуард Марцевич, Виктор Ильичев, Екатерина Дурова, Лев Перфилов
Описание: Приключенческий фильм по мотивам одноименной повести Александра Козачинского. Это ностальгический, лиричный и пронзительный фильм о послереволюционной Одессе. О мальчике — гимназисте, мечтающем о карьере Шерлока Холмса и попадающем в тот завораживающий кошмар, который принято называть горнилом революции.
Здесь причудливо и органично сочетаются юмор и романтика, жестокая правда и эксцентрика — и пронзительным серебряным горном звучит голос молодого Дмитрия Харатьяна, сыгравшего в этом фильме свою лучшую роль.
2 серии
Автор сценария — Игорь Шевцов
Режиссёр-постановщик — Александр Павловский
Оператор-постановщик — Виктор Крутин
Художник-постановщик — Иван Пуленко
Композитор — Максим Дунаевский
Текст песен — Наум Олев, исполняет Дмитрий Харатьян
Режиссёр — Валентина Судзиловская
Операторы: Александр Чубаров, В. Махнеев
Редактор — Е. Демченко
Костюмы — Татьяна Тарова
Грим — С. Кучерявенко
Монтаж — Инна Чаусская
Звукооператор — Игорь Гольдман
Запись музыки — Л. Сорокина
Музыкальный ансамбль «Фестиваль»
Комбинированные съёмки:
оператор — Всеволод Шлемов
художник — Е. Елисаветская
Ассистенты:
режиссёра — О. Некрасова, Л. Поддубная
оператора — И. Шевченко
Художник-декоратор — В. Малюгин
Консультант — генерал-майор М. Деменков
Административная группа: В. Губа, В. Милков, Н. Эльцина
Директор картины — Владимир Каранский
По сути своей этот романтичный, местами наивный фильм распадается на две части:
Первая это свойственное молодости желание разрушить стереотипы и начать взрослую жизнь с чистого листа не оглядываясь на опыт поколений и не считаясь с трудностями — максимализм во всем. И Володя Патрикеев увлечен вхождением в новую жизнь, благо и время позволяет — революция и гражданская война не оставляют «праха старого мира» от жизненных устоев — он становится начальником уездного уголовного розыска. Стремясь принести пользу на новой службе, имея за плечами опыт почерпнутый из книг, он «на лихом коне» не замечая никого вокруг устанавливает революционный порядок.
Вторая это период взросления Володи, первая горечь потерь друзей и товарищей, столкновение с несправедливостью и предательством. И вчерашний гимназист начинает понимать житейскую мудрость Грищенко, спокойствие и рассудительность Виктора Прокофьевича, железную волю и характер Начоперота. И как не парадоксально незримую связь с Красавчиком, конокрадом и бывшим голкипером, который в своей манере опекает Володю. Перечеркнутое прошлое дает о себе знать и в новой жизни переплетая сложным узором человеческие судьбы. Вчерашние гимназистки и адвокаты становятся грабителями и убийцами, а типографские рабочие и крестьяне во главе с гимназистом их ловят, при помощи конокрадов.
Сюжет подкреплен отличной игрой актеров — молодой Харатьян (Володя Патрикеев), Брундуков (Грищенко), Константин Григорьев (Начоперот) и другие, глядя на которых хочется верить, что вот такими и были милиционеры первых лет советской власти. А Соловьев (Красавчик), Адомайтис (Червень) воплотили образы от «ветром занесенных» в преступный мир до непримиримых врагов советской власти преступных элементов. Не забуду и закадровый текст в исполнении А. Джагарханяна — проникновенно читал.
Хороший и добрый фильм оставляет после просмотра чувство прекрасного, когда добро побеждает, а герой закаляется жизнью и готов к новым приключениям. Даже отрицательные (но обаятельные) персонажи по фильму на деле становятся на путь истинный
Формат : AVI
Формат/Информация : Audio Video Interleave
Размер файла : 1,03 Гбайт
Продолжительность : 1 ч. 7 м.
Общий поток : 2180 Кбит/сек
Программа кодирования : VirtualDubMod 1.5.10.2 (build 2540/release)
Библиотека кодирования : VirtualDubMod build 2540/release
Видео
Идентификатор : 0
Формат : MPEG-4 Visual
Параметр BVOP формата : 1
Параметр QPel формата : Нет
Параметр GMC формата : Без точки перехода
Параметр матрицы формата : Default (H.263)
Режим смешивания : Сжатый битовый поток
Идентификатор кодека : DX50
Идентификатор кодека/Подсказка : DivX 5
Продолжительность : 1 ч. 7 м.
Битрейт : 1914 Кбит/сек
Ширина : 704 пикс.
Высота : 512 пикс.
Соотношение сторон : 1,375
Частота кадров : 25,000 кадр/сек
Цветовое пространство : YUV
Подвыборка цветности : 4:2:0
Битовая глубина : 8 бит
Тип развёртки : Прогрессивная
Метод сжатия : С потерями
Бит/(Пиксели*Кадры) : 0.212
Размер потока : 922 Мбайт (88%)
Библиотека кодирования : DivX 6.8.5 (UTC 2009-08-20)
Аудио
Идентификатор : 1
Формат : AC-3
Формат/Информация : Audio Coding 3
Расширение режима : CM (complete main)
Идентификатор кодека : 2000
Продолжительность : 1 ч. 7 м.
Вид битрейта : Постоянный
Битрейт : 256 Кбит/сек
Каналы : 2 канала
Расположение каналов : Front: L R
Частота : 48,0 КГц
Битовая глубина : 16 бит
Метод сжатия : С потерями
Задержка видео : 16 мс.
Размер потока : 123 Мбайт (12%)
Выравнивание : Разделение по промежуткам
Продолжительность промежутка : 40 мс. (1,00 видеокадр)
Время предзагрузки промежутка : 500 ms
Общее
Полное имя : H:\ШАРА\ВИДЕО\ФИЛЬМЫ\Н А Ш Е\Зеленый фургон (2 серии из 2).1983.DivX.DVDRip\Zeleniy.Furgon.(2.Seriya.Iz.2).1983.DivX.DVDRip.avi
Формат : AVI
Формат/Информация : Audio Video Interleave
Размер файла : 1,03 Гбайт
Продолжительность : 1 ч. 9 м.
Общий поток : 2115 Кбит/сек
Программа кодирования : VirtualDubMod 1.5.10.2 (build 2540/release)
Библиотека кодирования : VirtualDubMod build 2540/release
Видео
Идентификатор : 0
Формат : MPEG-4 Visual
Параметр BVOP формата : 2
Параметр QPel формата : Нет
Параметр GMC формата : Без точки перехода
Параметр матрицы формата : Default (H.263)
Режим смешивания : Сжатый битовый поток
Идентификатор кодека : DX50
Идентификатор кодека/Подсказка : DivX 5
Продолжительность : 1 ч. 9 м.
Битрейт : 1849 Кбит/сек
Ширина : 704 пикс.
Высота : 512 пикс.
Соотношение сторон : 1,375
Частота кадров : 25,000 кадр/сек
Цветовое пространство : YUV
Подвыборка цветности : 4:2:0
Битовая глубина : 8 бит
Тип развёртки : Прогрессивная
Метод сжатия : С потерями
Бит/(Пиксели*Кадры) : 0.205
Размер потока : 918 Мбайт (87%)
Библиотека кодирования : DivX 6.8.5 (UTC 2009-08-20)
Аудио
Идентификатор : 1
Формат : AC-3
Формат/Информация : Audio Coding 3
Расширение режима : CM (complete main)
Идентификатор кодека : 2000
Продолжительность : 1 ч. 9 м.
Вид битрейта : Постоянный
Битрейт : 256 Кбит/сек
Каналы : 2 канала
Расположение каналов : Front: L R
Частота : 48,0 КГц
Битовая глубина : 16 бит
Метод сжатия : С потерями
Задержка видео : 24 мс.
Размер потока : 127 Мбайт (12%)
Выравнивание : Разделение по промежуткам
Продолжительность промежутка : 40 мс. (1,00 видеокадр)
Время предзагрузки промежутка : 500 ms
Источник/Качество: DVDRip
Формат: AVI
Видео кодек: DivX
Аудио кодек: AC3
Видео 1 серия: 704x512 (1.38:1), 25 fps, DivX Codec 6.8.5/6.9.1 ~1914 kbps avg, 0.21 bit/pixel
Аудио 1 серия: 48 kHz, AC3 Dolby Digital, 2/0 (L,R) ch, ~256 kbps
Видео 2 серия: 704x512 (1.38:1), 25 fps, DivX Codec 6.8.5/6.9.1 ~1849 kbps avg, 0.20 bit/pixel
Аудио 2 серия: 48 kHz, AC3 Dolby Digital, 2/0 (L,R) ch, ~256 kbps
Download / Скачать

Хотите скачать бесплатно? Зарегистрируйтесь на сайте (ссылка на регистрацию). Pirat.ca - самый быстрый торрент трекер в рунете!

Как скачивать  ·   Что такое торрент  ·   Рейтинг и ограничения

Пост 27-Мар-2012 22:54 (спустя 21 минута)

Топик был перенесен из форума Наше Кино в форум Советское кино

ara1205
 

sandman1973

Гроза морей

2129

Пост 27-Мар-2012 23:29 (спустя 56 минут)

[Q] 

Люблю этот фильм ))

_________________

[Профиль]  [ЛС] 

Раемия

Флибустьер

Пост 27-Мар-2012 23:50 (спустя 20 минут)

[Q] 

старый добрый фильм...давно в моей коллекции...рекомендую!!!

_________________
Любите кроликов!!!…и они отплатят вам тем же…
[Профиль]  [ЛС] 

AndyFox

Корсар

376

Пост 21-Ноя-2012 12:51 (спустя 7 месяцев 24 дня)

[Q] 

Отличный военно-революционный фильм!

_________________
Torrent.
[Профиль]  [ЛС] 

polyk

Флибустьер

Пост 02-Окт-2015 00:20 (спустя 2 года 10 месяцев)

[Q] 

хороший добрый фильм
[Профиль]  [ЛС] 

xzxscorpxzx

Флибустьер

Пост 09-Фев-2016 03:19 (спустя 4 месяца 7 дней)

[Q] 

спасибо)отличный
[Профиль]  [ЛС] 
Показать сообщения:    
Ответить на тему

Текущее время: Сегодня 19:59

Часовой пояс: GMT + 4



Вы не можете начинать темы
Вы не можете отвечать на сообщения
Вы не можете редактировать свои сообщения
Вы не можете удалять свои сообщения
Вы не можете голосовать в опросах
Вы не можете прикреплять файлы к сообщениям
Вы не можете скачивать файлы

▼ Вниз