ML
     
  Уважаемый Гость!
Вы можете поддержать проект и зарегистрироваться у наших партнеров - онлайн-стратегия MyLands. При регистрации в игре Вы получите код, который сможете активировать после регистрации на pirat.ca и получить 1000 дублонов.

Ваш код:
34514219cfad5497a1822ecc1269bea77988f9aa
 
     

Начало (Глеб Панфилов) [1970 г., комедия, мелодрама, DVDRip]

Ответить на тему
 
Автор
Сообщение

Пост 28-Мар-2012 19:42

[Q] 

lovstas

Лоцман

Начало
Год выпуска: 1970
Жанр: комедия, мелодрама
Продолжительность: 01:26:07
Режиссер: Глеб Панфилов
В ролях: Инна Чурикова
Валентина Теличкина
Татьяна Степанова
Леонид Куравлев
Михаил Кононов
Нина Скоморохова
Татьяна Бедова
Юрий Клепиков
Геннадий Беглов
Юрий Визбор
...
Описание: Девушка из провинциального русского городка мечтает стать актрисой, а пока самозабвенно играет Бабу Ягу в городском клубе. Вот там-то и находит ее режиссер, который намерен снять фильм о Жанне дАрк. Сбывается мечта: ее приглашают на главную роль, и у нее начинается совсем другая жизнь, полная настоящих творческих мук и озарений.
Источник/Качество: DVDRip
Формат: AVI
Видео кодек: XviD
Аудио кодек: MP3
Видео: 672x288 (2.33:1), 25 fps, XviD build 47 ~1072 kbps avg, 0.22 bit/pixel
Аудио: 48 kHz, MPEG Layer 3, 2 ch, ~128.00 kbps avg
Общее
Полное имя : G:\Torrent\Салёный\Nachalo [pirat.ca].avi
Формат : AVI
Формат/Информация : Audio Video Interleave
Размер файла : 746 Мбайт
Продолжительность : 1 ч. 26 м.
Общий поток : 1210 Кбит/сек
Программа кодирования : VirtualDubMod 1.5.10.2 (build 2540/release)
Библиотека кодирования : VirtualDubMod build 2540/release
Видео
Идентификатор : 0
Формат : MPEG-4 Visual
Профиль формата : Advanced [email protected]
Параметр BVOP формата : 1
Параметр QPel формата : Нет
Параметр GMC формата : Без точки перехода
Параметр матрицы формата : Default (MPEG)
Идентификатор кодека : XVID
Идентификатор кодека/Подсказка : XviD
Продолжительность : 1 ч. 26 м.
Битрейт : 1073 Кбит/сек
Ширина : 672 пикселя
Высота : 288 пикселей
Соотношение сторон : 2,35:1
Частота кадров : 25,000 кадров/сек
Цветовое пространство : YUV
Субдискретизация насыщенности : 4:2:0
Битовая глубина : 8 бит
Тип развёртки : Прогрессивная
Метод сжатия : С потерями
Бит/(Пиксели*Кадры) : 0.222
Размер потока : 661 Мбайт (89%)
Библиотека кодирования : XviD 1.2.0.dev47 (UTC 2006-11-01)
Аудио
Идентификатор : 1
Формат : MPEG Audio
Версия формата : Version 1
Профиль формата : Layer 3
Идентификатор кодека : 55
Идентификатор кодека/Подсказка : MP3
Продолжительность : 1 ч. 26 м.
Вид битрейта : Постоянный
Битрейт : 128 Кбит/сек
Каналы : 2 канала
Частота : 48,0 КГц
Метод сжатия : С потерями
Размер потока : 78,8 Мбайт (11%)
Выравнивание : Разделение по промежуткам
Продолжительность промежутка : 40 мс. (1,00 видеокадр)
Время предзагрузки промежутка : 500 мс.
Библиотека кодирования : LAME3.98
Download / Скачать

Хотите скачать бесплатно? Зарегистрируйтесь на сайте (ссылка на регистрацию). Pirat.ca - самый быстрый торрент трекер в рунете!

Как скачивать  ·   Что такое торрент  ·   Рейтинг и ограничения



Последний раз редактировалось: lovstas (2012-03-28 21:04), всего редактировалось 2 раз(а)

Пост 28-Мар-2012 21:09 (спустя 1 час 27 минут)

Топик был перенесен из форума Наше Кино в форум Советское кино

Linnan
 

sandman1973

Гроза морей

2128

Пост 29-Мар-2012 16:34 (спустя 20 часов)

[Q] 


_________________

[Профиль]  [ЛС] 
Показать сообщения:    
Ответить на тему

Текущее время: Сегодня 07:48

Часовой пояс: GMT + 4



Вы не можете начинать темы
Вы не можете отвечать на сообщения
Вы не можете редактировать свои сообщения
Вы не можете удалять свои сообщения
Вы не можете голосовать в опросах
Вы не можете прикреплять файлы к сообщениям
Вы не можете скачивать файлы

▼ Вниз