ML
     
  Уважаемый Гость!
Вы можете поддержать проект и зарегистрироваться у наших партнеров - онлайн-стратегия MyLands. При регистрации в игре Вы получите код, который сможете активировать после регистрации на pirat.ca и получить 1000 дублонов.

Ваш код:
5af7de75d3db09b6a37bc8bab71b0e87ccde73d6
 
     

Жестокий романс (Эльдар Рязанов) [1984 г., драма, мелодрама, DVDRip]

Ответить на тему
 
Автор
Сообщение

Пост 04-Дек-2011 11:17

[Q] 

avzaytsev

Морской Волк

Жестокий романс
Год выпуска: 1984
Производство: СССР
Жанр: драма, мелодрама
Продолжительность: 02:16:54
Режиссер: Эльдар Рязанов
В ролях: Ольга Волкова, Борислав Брондуков, Татьяна Панкова, Лариса Гузеева, Георгий Бурков, Алексей Петренко, Алиса Фрейндлих, Андрей Мягков, Виктор Проскурин, Александр Пятков, Никита Михалков, Юрий Саранцев
Описание: Фильм снят по мотивам пьесы крупнейшего русского драматурга Александра Островского "Бесприданница". Красавица Лариса Огудалова, дочь обедневшей вдовы - дворянки, без памяти влюблена в лощенного красавца Сергея Паратова. Он же, расчетливый и практичный, отвечает девушке взаимностью - до поры до времени. В решающий момент, когда девушка ждет объяснения с любимым, он исчезает из ее жизни. А оскорбленной Ларисе делает предложение Карандышев, которого она презирает...
КиноПоиск
Источник/Качество: DVDRip
Формат: AVI
Видео кодек: XviD
Аудио кодек: AC3
Видео: 512x384 (1.33:1), 25 fps, XviD MPEG-4 ~975 kbps avg, 0.20 bit/pixel
Аудио: 48 kHz, AC3 Dolby Digital, 6 ch, ~448.00 kbps avg
Общее
Полное имя : Жестокий романс.avi
Формат : AVI
Формат/Информация : Audio Video Interleave
Размер файла : 1,37 Гбайт
Продолжительность : 2 ч. 16 м.
Общий поток : 1430 Кбит/сек
Название фильма : Zhestokiy.romans.rus.xvid.ac3.dvd
Программа кодирования : VirtualDubMod 1.5.4.1 (build 2178/release)
Примечание : soperedi
Видео
Идентификатор : 0
Формат : MPEG-4 Visual
Профиль формата : Advanced [email protected]
Параметр BVOP формата : 1
Параметр QPel формата : Нет
Параметр GMC формата : Без точки перехода
Параметр матрицы формата : Default (H.263)
Режим смешивания : Сжатый битовый поток
Идентификатор кодека : XVID
Идентификатор кодека/Подсказка : XviD
Продолжительность : 2 ч. 16 м.
Битрейт : 975 Кбит/сек
Ширина : 512 пикселей
Высота : 384 пикселя
Соотношение сторон : 4:3
Частота кадров : 25,000 кадров/сек
Цветовое пространство : YUV
Субдискретизация насыщенности : 4:2:0
Битовая глубина : 8 бит
Тип развёртки : Прогрессивная
Метод сжатия : С потерями
Бит/(Пиксели*Кадры) : 0.198
Размер потока : 954 Мбайт (68%)
Библиотека кодирования : XviD 1.2.0SMP (UTC 2006-01-08)
Аудио
Идентификатор : 1
Формат : AC-3
Формат/Информация : Audio Coding 3
Расширение режима : CM (complete main)
Идентификатор кодека : 2000
Продолжительность : 2 ч. 16 м.
Вид битрейта : Постоянный
Битрейт : 448 Кбит/сек
Каналы : 6 каналов
Расположение каналов : Front: L C R, Side: L R, LFE
Частота : 48,0 КГц
Битовая глубина : 16 бит
Метод сжатия : С потерями
Задержка видео : 9 с. 42 мс.
Размер потока : 439 Мбайт (31%)
Выравнивание : Разделение по промежуткам
Продолжительность промежутка : 80 мс. (2,00 видеокадра)
Время предзагрузки промежутка : 500 мс.





Download / Скачать

Хотите скачать бесплатно? Зарегистрируйтесь на сайте (ссылка на регистрацию). Pirat.ca - самый быстрый торрент трекер в рунете!

Как скачивать  ·   Что такое торрент  ·   Рейтинг и ограничения

Пост 04-Дек-2011 11:54 (спустя 37 минут)

Топик был перенесен из форума Наше Кино в форум Советское кино

Skinwalker
 

fat2010

Штурман

Пост 31-Янв-2012 00:30 (спустя 1 месяц 26 дней)

[Q] 

Большое спасибо за классику!!!!!!!!!!!!!!!
[Профиль]  [ЛС] 

VaNo192

Корсар

Пост 12-Мар-2012 14:37 (спустя 1 месяц 12 дней)

[Q] 

[Профиль]  [ЛС] 

K_sined

Штурман

Пост 12-Мар-2012 23:46 (спустя 9 часов)

[Q] 

[Профиль]  [ЛС] 

Alexe10

Гроза морей

36

Пост 23-Окт-2014 07:18 (спустя 2 года 7 месяцев)

[Q] 

Всем качать!!! Автору респект!!!
[Профиль]  [ЛС] 

xzxscorpxzx

Флибустьер

Пост 15-Фев-2016 11:39 (спустя 1 год 3 месяца)

[Q] 

всем качать) Супер!
[Профиль]  [ЛС] 
Показать сообщения:    
Ответить на тему

Текущее время: Сегодня 14:13

Часовой пояс: GMT + 4



Вы не можете начинать темы
Вы не можете отвечать на сообщения
Вы не можете редактировать свои сообщения
Вы не можете удалять свои сообщения
Вы не можете голосовать в опросах
Вы не можете прикреплять файлы к сообщениям
Вы не можете скачивать файлы

▼ Вниз