ML
     
  Уважаемый Гость!
Вы можете поддержать проект и зарегистрироваться у наших партнеров - онлайн-стратегия MyLands. При регистрации в игре Вы получите код, который сможете активировать после регистрации на pirat.ca и получить 1000 дублонов.

Ваш код:
fcd618d94adc1456bccbde5047c9cd0930e4ae4d
 
     

Дама с попугаем (Андрей Праченко) [1988 г., Комедия, Мелодрама, DVDRip]

Ответить на тему
 
Автор
Сообщение

Пост 04-Апр-2012 09:47

[Q] 

megamastor

Дама с попугаем
Год выпуска: 1988
Жанр: Комедия, Мелодрама
Продолжительность: 01:34:10
Режиссер: Андрей Праченко
В ролях: Алексей Жарков, Светлана Смирнова, Дмитрий Копп, Татьяна Дитковсцене, Станислав Садальский, Альберт Филозов, Александр Вокач, Богдан Бенюк
Описание: Механик Шереметьевского аэропорта Сергей ежегодно отправляется в отпуск на Черноморское побережье Кавказа. Там он превращается в настоящего покорителя женских сердец. Однажды он решается разыскать одну из своих курортных знакомых – молодую профессорскую жену Елену. Его помощниками оказываются попугай, без устали повторяющий адрес своей хозяйки, и ее сын - хулиган и двоечник... Но когда они, наконец, встречаются, то выясняется, что женщина так же одинока, как и он, а маска профессорской жены – лишь попытка скрыть свою беззащитность и неустроенность в жизни...
Источник/Качество: DVDRip
Формат: AVI
Видео кодек: DivX
Аудио кодек: AC3
Видео: 640 x 480, ~1500 kb/s, DivX 5
Аудио: 256 kb/s, 2 ch, AC3
Общее
Полное имя : Dama.s.popugaem.1988.DivX.DVDRip.avi
Формат : AVI
Формат/Информация : Audio Video Interleave
Размер файла : 1,37 Гбайт
Продолжительность : 1 ч. 34 м.
Общий поток : 2079 Кбит/сек
Программа кодирования : VirtualDubMod 1.5.10.2 (build 2542/release)
Библиотека кодирования : VirtualDubMod build 2542/release
Видео
Идентификатор : 0
Формат : MPEG-4 Visual
Параметр BVOP формата : 1
Параметр QPel формата : Нет
Параметр GMC формата : Без точки перехода
Параметр матрицы формата : Default (MPEG)
Режим смешивания : Сжатый битовый поток
Идентификатор кодека : DX50
Идентификатор кодека/Подсказка : DivX 5
Продолжительность : 1 ч. 34 м.
Битрейт : 1814 Кбит/сек
Ширина : 640 пикселей
Высота : 480 пикселей
Соотношение сторон : 4:3
Частота кадров : 25,000 кадров/сек
Цветовое пространство : YUV
Субдискретизация насыщенности : 4:2:0
Битовая глубина : 8 бит
Тип развёртки : Прогрессивная
Метод сжатия : С потерями
Бит/(Пиксели*Кадры) : 0.236
Размер потока : 1,19 Гбайт (87%)
Библиотека кодирования : DivX 5.2.1 Beta (UTC 2004-09-08)
Аудио
Идентификатор : 1
Формат : AC-3
Формат/Информация : Audio Coding 3
Расширение режима : CM (complete main)
Идентификатор кодека : 2000
Продолжительность : 1 ч. 34 м.
Вид битрейта : Постоянный
Битрейт : 256 Кбит/сек
Каналы : 2 канала
Расположение каналов : Front: L R
Частота : 48,0 КГц
Битовая глубина : 16 бит
Метод сжатия : С потерями
Размер потока : 172 Мбайт (12%)
Выравнивание : Разделение по промежуткам
Продолжительность промежутка : 40 мс. (1,00 видеокадр)
Время предзагрузки промежутка : 500 мс.
Download / Скачать

Хотите скачать бесплатно? Зарегистрируйтесь на сайте (ссылка на регистрацию). Pirat.ca - самый быстрый торрент трекер в рунете!

Как скачивать  ·   Что такое торрент  ·   Рейтинг и ограничения

Пост 04-Апр-2012 10:24 (спустя 36 минут)

Топик был перенесен из форума Наше Кино в форум Советское кино

genkasper
 

TrackZEK

Штурман

59

Пост 26-Апр-2012 16:24 (спустя 22 дня)

[Q] 

Отличный фильмец!
[Профиль]  [ЛС] 

abc7

Гроза морей

464

Пост 26-Апр-2012 17:01 (спустя 37 минут)

[Q] 

[Профиль]  [ЛС] 
Показать сообщения:    
Ответить на тему

Текущее время: Сегодня 12:54

Часовой пояс: GMT + 4



Вы не можете начинать темы
Вы не можете отвечать на сообщения
Вы не можете редактировать свои сообщения
Вы не можете удалять свои сообщения
Вы не можете голосовать в опросах
Вы не можете прикреплять файлы к сообщениям
Вы не можете скачивать файлы

▼ Вниз