ML
     
  Уважаемый Гость!
Вы можете поддержать проект и зарегистрироваться у наших партнеров - онлайн-стратегия MyLands. При регистрации в игре Вы получите код, который сможете активировать после регистрации на pirat.ca и получить 1000 дублонов.

Ваш код:
9cfe162481db953a6549f32179d7b3900b8b8643
 
     

Шаг навстречу (Наум Бирман) [1975 г., драма, комедия, семейный, DVDRip]

Ответить на тему
 
Автор
Сообщение

Пост 07-Апр-2012 23:46

[Q] 

kufre

Корсар

Шаг навстречу
Год выпуска: 1975
Жанр: драма, комедия, семейный
Продолжительность: 01:13:02
Режиссер: Наум Бирман
В ролях: Людмила Гурченко, Георгий Вицин, Лев Дуров, Семен Морозов, Евгений Леонов, Владимир Басов, Вера Титова, Андрей Миронов, Борис Щербаков, Валентина Телегина, Николай Волков, Андрей Попов, Елена Цыплакова, Людмила Иванова, Валентина Владимирова, Елена Соловей.
Описание: В фильме пять новелл, объединенных историей зарождающейся любви двух немолодых людей, каждый день встречающихся по дороге на работу. Встречаясь каждый день в общественном транспорте они и не подозревают о том, что они соседи по дому и доставляют друг другу постоянно массу неприятностей. Пять новелл: «Дочь капитана», «Отец Серафим», «Мясо по-аргентински», «Свадебный марш», «Всего за 30 копеек» — лирические рассказы об этих событиях
Формат : AVI
Формат/Информация : Audio Video Interleave
Размер файла : 1,37 Гбайт
Продолжительность : 1 ч. 13 м.
Общий поток : 2677 Кбит/сек
Программа кодирования : VirtualDubMod 1.5.4.1 (build 2178/release)
Библиотека кодирования : VirtualDubMod build 2178/release
Видео
Идентификатор : 0
Формат : MPEG-4 Visual
Профиль формата : Advanced [email protected]
Параметр BVOP формата : 1
Параметр QPel формата : Нет
Параметр GMC формата : Без точки перехода
Параметр матрицы формата : Выборочная
Идентификатор кодека : XVID
Идентификатор кодека/Подсказка : XviD
Продолжительность : 1 ч. 13 м.
Битрейт : 2478 Кбит/сек
Ширина : 720 пикс.
Высота : 544 пикс.
Соотношение сторон : 4:3
Частота кадров : 25,000 кадр/сек
Цветовое пространство : YUV
Подвыборка цветности : 4:2:0
Битовая глубина : 8 бит
Тип развёртки : Прогрессивная
Метод сжатия : С потерями
Бит/(Пиксели*Кадры) : 0.253
Размер потока : 1,26 Гбайт (93%)
Библиотека кодирования : XviD 1.2.0.dev47 (UTC 2006-11-01)
Аудио
Идентификатор : 1
Формат : AC-3
Формат/Информация : Audio Coding 3
Расширение режима : CM (complete main)
Идентификатор кодека : 2000
Продолжительность : 1 ч. 13 м.
Вид битрейта : Постоянный
Битрейт : 192 Кбит/сек
Каналы : 2 канала
Расположение каналов : Front: L R
Частота : 48,0 КГц
Битовая глубина : 16 бит
Метод сжатия : С потерями
Размер потока : 100 Мбайт (7%)
Выравнивание : Разделение по промежуткам
Продолжительность промежутка : 96 мс. (2,40 видеокадра)
Время предзагрузки промежутка : 96 ms
Язык : Russian
Источник/Качество: DVDRip
Формат: AVI
Видео кодек: XviD
Аудио кодек: AC3
Видео: 720x544 (1.32:1), 25 fps, XviD build 47 ~2478 kbps avg, 0.25 bit/pixel
Аудио: 48 kHz, AC3 Dolby Digital, 2/0 (L,R) ch, ~192 kbps
Download / Скачать

Хотите скачать бесплатно? Зарегистрируйтесь на сайте (ссылка на регистрацию). Pirat.ca - самый быстрый торрент трекер в рунете!

Как скачивать  ·   Что такое торрент  ·   Рейтинг и ограничения

Luzhok

Легенда

Пост 29-Ноя-2012 10:26 (спустя 7 месяцев 21 день)

[Q] 

kufre
спасибо за релиз
и с днём рожденья!
[Профиль]  [ЛС] 

kufre ®

Корсар

3086

Пост 29-Ноя-2012 22:12 (спустя 11 часов)

[Q] 

Luzhok, Спасибо !! az

_________________
[Профиль]  [ЛС] 

Simsim

Морской Волк

Пост 23-Ноя-2014 18:14 (спустя 1 год 11 месяцев)

[Q] 

хорошие фильмы !
[Профиль]  [ЛС] 
Показать сообщения:    
Ответить на тему

Текущее время: Сегодня 06:00

Часовой пояс: GMT + 4



Вы не можете начинать темы
Вы не можете отвечать на сообщения
Вы не можете редактировать свои сообщения
Вы не можете удалять свои сообщения
Вы не можете голосовать в опросах
Вы не можете прикреплять файлы к сообщениям
Вы не можете скачивать файлы

▼ Вниз