ML
     
  Уважаемый Гость!
Вы можете поддержать проект и зарегистрироваться у наших партнеров - онлайн-стратегия MyLands. При регистрации в игре Вы получите код, который сможете активировать после регистрации на pirat.ca и получить 1000 дублонов.

Ваш код:
4fbd9898b6f10799a3e8edf60f31febd2bc15453
 
     

Полет с космонавтом (Геннадий Васильев) [1980 г., мелодрама, SatRip]

Ответить на тему
 
Автор
Сообщение

Пост 16-Апр-2012 11:04

[Q] 

kufre

Корсар

Полет с космонавтом
Год выпуска: 1980
Жанр: мелодрама
Продолжительность: 01:17:57
Режиссер: Геннадий Васильев
В ролях: Валерий Шальных, Наталья Егорова, Татьяна Егорова, Николай Попков, Михаил Брылкин, Леонид Марков, Алла Мещерякова, Анатолий Горбенко, Иван Екатериничев, Игорь Кашинцев, Александр Парра, Леонид Кулагин, Юрий Сагьянц, Аркадий Трусов, Михаил Порошин
Описание: Семен Брусничкин — целеустремленный деревенский парень. Он равнодушен к развлечениям, строго соблюдает режим, изучает языки и точные науки. В его жизни есть две цели — стать космонавтом и завоевать сердце бывшей одноклассницы Марины.
Недобрав баллов в институт, Семен идет служить в армию. Потом работает шофером, фермером и даже милиционером. Везде он — лучший. Только в любви Брусничкину не повезло, так как неточная эта наука.
"Тема мечты" - одно из лучших произведений А.Рыбникова.
«Такие как ты один на тысячу».
Фильм о том, как человек идет к своей цели, к своей мечте. Ведь у каждого у нас есть своя заветная мечта: кто-то мечтает о крутой тачке, кто-то о больших деньгах, кто-то мечтает о женихе, у которого это все будет и он все это воплотит в реальность. Но все это — приземленные, бренные мечты. Ну что это за мечты, в самом деле!
Главный герой, Семен Брусничкин, родом из деревни Лаптево, Верхне-Пинского района мечтал стать космонавтом. «Упорством и настойчивостью можно добиться всего» — говорил Семен. Еще у него была цель завоевать сердце одноклассницы Марина, в которую он был влюблен с шестого класса. Но Марина…как сказал бы Костик из «Покровских ворот»: «Очень ветренная девица». Не дождалась его из армии. А вот Семен нравился другой своей однокласснице Любе.
Он изучал самостоятельно иностранные языки и другие науки. Сам! Да он не поступил в институт с первого раза, но это его не остановили. Он отслужил в армии, работал скотником на ферме, служил в милиции. И не когда не говорил, что времени у него нет, что зачем я пойду в армию, два года терять мне в космос надо и прочие. Нет! Надо значит надо! Говорят, что мечтатель часто верно определяет свое будущее, он не хочет дожидаться его. Он хочет своими усилиями приблизить его. То, на что природе нужны тысячи лет, мечтатель хочет видеть совершенным во время своей жизни. Есть, конечно, бездарные мечтатели со своими такими же бездарными мечтаниями и эти люди по истине опасны. Но Семен Брусничкин не такой. Где бы он не работал, не служил никто про него и слова худого не скажет. Преуспел везде, чем бы не занимался! При этом его подготовка к космонавтике не как не сказывалась на работе и службе. И не удивительно, что не с одной работы его не хотели отпускать! И даже из армии! Кто из нас может такое сказать о себе, что на всех работах его ценили как человека добросовестно исполняющего свои обязанности?
Цель состоит не в том, чтобы преуспеть, добиться каких-то бренных вещей, но в том, чтобы иметь право, заглянув в свою душу при свете совести и убедиться, что сделанным можно гордиться или, по крайней мере не краснеть за него. Д. Леопарди говорил, что « у кого нет цели, тот не находит радости ни в каком занятии». Семен находил упоение во всем!
Есть интересная сцена доставки представителя стройтреста к поезду. Вот это был действительно полет с космонавтом! Бедняга Илларион Степанович запомнил эту поездку надолго…Не эту ли сцену увидел Люк Бессон и вставил в свой фильм «Такси»?
И еще сцена, когда он в милиции начинал служить, чтобы проверить его знания языков привезли даже профессора-полиглота из института. И вот они начали общаться на английском, перешли на немецкий, французский, испанский, японский. В конце разговора ошарашенный знаниями Семена полиглот даже стал его уговаривать поступать в аспирантуру.
Будем смело шагать к своей цели, будем пытаться жить так, как она нам подсказывает и нас ожидает такой успех, какого не дано будничному существованию!
«Цель — это мечта, которая должна осуществиться к точно определенному сроку» — Х. Маккей.
Формат : AVI
Формат/Информация : Audio Video Interleave
Размер файла : 1,09 Гбайт
Продолжительность : 1 ч. 17 м.
Общий поток : 2005 Кбит/сек
Программа кодирования : VirtualDubModRus 1.5.10.2 (build 2542/release)
Библиотека кодирования : VirtualDubMod build 2542/release
Видео
Идентификатор : 0
Формат : MPEG-4 Visual
Профиль формата : Advanced [email protected]
Параметр BVOP формата : 2
Параметр QPel формата : Нет
Параметр GMC формата : Без точки перехода
Параметр матрицы формата : Default (MPEG)
Режим смешивания : Сжатый битовый поток
Идентификатор кодека : XVID
Идентификатор кодека/Подсказка : XviD
Продолжительность : 1 ч. 17 м.
Битрейт : 1867 Кбит/сек
Ширина : 672 пикс.
Высота : 304 пикс.
Соотношение сторон : 2,2:1
Частота кадров : 25,000 кадр/сек
Цветовое пространство : YUV
Подвыборка цветности : 4:2:0
Битовая глубина : 8 бит
Тип развёртки : Прогрессивная
Метод сжатия : С потерями
Бит/(Пиксели*Кадры) : 0.366
Размер потока : 1,02 Гбайт (93%)
Библиотека кодирования : XviD 1.2.1 (UTC 2008-12-04)
Аудио
Идентификатор : 1
Формат : AC-3
Формат/Информация : Audio Coding 3
Расширение режима : CM (complete main)
Идентификатор кодека : 2000
Продолжительность : 1 ч. 17 м.
Вид битрейта : Постоянный
Битрейт : 128 Кбит/сек
Каналы : 2 канала
Расположение каналов : Front: L R
Частота : 48,0 КГц
Битовая глубина : 16 бит
Метод сжатия : С потерями
Размер потока : 71,3 Мбайт (6%)
Выравнивание : Разделение по промежуткам
Продолжительность промежутка : 40 мс. (1,00 видеокадр)
Время предзагрузки промежутка : 500 ms
Источник/Качество: SatRip
Формат: AVI
Видео кодек: Xvid
Аудио кодек: AC3
Видео: 672x304 (2.21:1), 25 fps, XviD MPEG-4 ~1866 kbps avg, 0.36 bit/pixel
Аудио: 48 kHz, AC3 Dolby Digital, 2/0 (L,R) ch, ~128 kbps
Download / Скачать

Хотите скачать бесплатно? Зарегистрируйтесь на сайте (ссылка на регистрацию). Pirat.ca - самый быстрый торрент трекер в рунете!

Как скачивать  ·   Что такое торрент  ·   Рейтинг и ограничения



Последний раз редактировалось: kufre (2012-11-25 14:54), всего редактировалось 3 раз(а)

Пост 16-Апр-2012 15:17 (спустя 4 часа)

Топик был перенесен из форума Наше Кино в форум Советское кино

Linnan
 

Дядя Витя

53903

Пост 16-Апр-2012 21:20 (спустя 10 часов)

[Q] 


скрин кончился, перезалить бы ...

_________________
?
На форуме  [Профиль]  [ЛС] 

Пост 25-Ноя-2012 16:08 (спустя 7 месяцев 8 дней)

Топик был перенесен из форума Наше кино (Трюм) в форум Советское кино

erchine
 

CHARLI2236

1092

Пост 11-Сен-2013 18:40 (спустя 1 год 4 месяца)

[Q] 

подключусь AntiZip 23

_________________
[Профиль]  [ЛС] 

manu

Пост 04-Дек-2013 22:02 (спустя 2 месяца 23 дня)

[Q] 

встану на раздачу!
[Профиль]  [ЛС] 
Показать сообщения:    
Ответить на тему

Текущее время: Сегодня 20:02

Часовой пояс: GMT + 4



Вы не можете начинать темы
Вы не можете отвечать на сообщения
Вы не можете редактировать свои сообщения
Вы не можете удалять свои сообщения
Вы не можете голосовать в опросах
Вы не можете прикреплять файлы к сообщениям
Вы не можете скачивать файлы

▼ Вниз