ML
     
  Уважаемый Гость!
Вы можете поддержать проект и зарегистрироваться у наших партнеров - онлайн-стратегия MyLands. При регистрации в игре Вы получите код, который сможете активировать после регистрации на pirat.ca и получить 1000 дублонов.

Ваш код:
500cb7bd8d2cec9a8aba647a87ce41c4b76f06bd
 
     

Маленькая Вера (Василий Пичул) [1988 г., Драма, DVDRip]

Ответить на тему
 
Автор
Сообщение

Пост 19-Апр-2012 11:18

[Q] 

megamastor

Маленькая Вера
Год выпуска: 1988
Жанр: Драма
Продолжительность: 02:08:11
Режиссер: Василий Пичул
В ролях: Наталья Негода, Андрей Соколов, Юрий Назаров, Людмила Зайцева, Александр Алексеев-Негреба, Александра Табакова, Андрей Фомин, Александр Миронов, Александр Леньков
Описание: Маленькая Вера — отвязная и резкая, добрая и чуткая девчонка, рвущая от жизни, что удается, но не то она рвет, и оторванные куски не доставляют радости. Да и что можно оторвать в провинциальном, рабочем городе с дикими драками под портретами вождей, танцплощадкой и прочими прелестями социализма? Что могут сказать очумевшие от работы и борьбы за выживание родители только что окончившей школу дочери, найдя у нее в сумочке 20 «иностранных долларов»? Она задыхается, и, как и всем людям, ей нужны счастье и любовь, что в любом обществе достается не всем.
Источник/Качество: DVDRip
Формат: AVI
Видео кодек: XviD
Аудио кодек: MP3
Видео: 672х384, 16/9, 25.000 fps, 1323 Kbps, XviD 1.2
Аудио: 48.0 KHz, MPEG Audio Layer 3, 192 Kbps, CBR, 2 channels
Общее
Полное имя : Malenkaya_Vera.avi
Формат : AVI
Формат/Информация : Audio Video Interleave
Размер файла : 1,37 Гбайт
Продолжительность : 2 ч. 8 м.
Общий поток : 1525 Кбит/сек
Программа кодирования : VirtualDubMod 1.5.10.2 (build 2540/release)
Библиотека кодирования : VirtualDubMod build 2540/release
Видео
Идентификатор : 0
Формат : MPEG-4 Visual
Профиль формата : Advanced [email protected]
Параметр BVOP формата : 2
Параметр QPel формата : Нет
Параметр GMC формата : Без точки перехода
Параметр матрицы формата : Default (H.263)
Режим смешивания : Сжатый битовый поток
Идентификатор кодека : XVID
Идентификатор кодека/Подсказка : XviD
Продолжительность : 2 ч. 8 м.
Битрейт : 1323 Кбит/сек
Ширина : 672 пикселя
Высота : 384 пикселя
Соотношение сторон : 16:9
Частота кадров : 25,000 кадров/сек
Цветовое пространство : YUV
Субдискретизация насыщенности : 4:2:0
Битовая глубина : 8 бит
Тип развёртки : Прогрессивная
Метод сжатия : С потерями
Бит/(Пиксели*Кадры) : 0.205
Размер потока : 1,18 Гбайт (87%)
Библиотека кодирования : XviD 1.2.0SMP (UTC 2006-01-08)
Аудио
Идентификатор : 1
Формат : MPEG Audio
Версия формата : Version 1
Профиль формата : Layer 3
Режим : Joint stereo
Расширение режима : MS Stereo
Идентификатор кодека : 55
Идентификатор кодека/Подсказка : MP3
Продолжительность : 2 ч. 8 м.
Вид битрейта : Постоянный
Битрейт : 192 Кбит/сек
Каналы : 2 канала
Частота : 48,0 КГц
Метод сжатия : С потерями
Размер потока : 176 Мбайт (13%)
Выравнивание : Соединение по промежуткам
Продолжительность промежутка : 40 мс. (1,00 видеокадр)
Время предзагрузки промежутка : 504 мс.
Download / Скачать

Хотите скачать бесплатно? Зарегистрируйтесь на сайте (ссылка на регистрацию). Pirat.ca - самый быстрый торрент трекер в рунете!

Как скачивать  ·   Что такое торрент  ·   Рейтинг и ограничения

Пост 19-Апр-2012 11:58 (спустя 40 минут)

Топик был перенесен из форума Наше Кино в форум Советское кино

Linnan
 

kiryandr

Легенда

63134

Пост 19-Апр-2012 13:32 (спустя 2 часа 13 минут)

[Q] 

Старое доброе время!!!

_________________
[Профиль]  [ЛС] 

abc7

Гроза морей

464

Пост 20-Апр-2012 20:08 (спустя 1 день 6 часов)

[Q] 

[Профиль]  [ЛС] 

poleshuk

Морской Волк

Пост 21-Апр-2012 18:00 (спустя 21 час)

[Q] 

в совковое время-было выхода интересно,ново такое смотреть. особенно живя в провинции.
по прошествии стольких лет после накопленного жизненного опыта (и еще похлеще,нежели в фильме) - даже не знаю, стоит ли освежать в памяти данное произведение :)
[Профиль]  [ЛС] 

TrackZEK

Штурман

59

Пост 26-Апр-2012 16:19 (спустя 4 дня)

[Q] 

в совковое время-было выхода интересно,ново такое смотреть. особенно живя в провинции.
по прошествии стольких лет после накопленного жизненного опыта (и еще похлеще,нежели в фильме) - даже не знаю, стоит ли освежать в памяти данное произведение :)
Тебе лучше не освежать! Живи в нынешнем дерьме и радуйся,
что теперь вся страна как раньше была твоя провинция!
[Профиль]  [ЛС] 

vlad732007

Корсар

Пост 17-Июн-2013 17:54 (спустя 1 год 1 месяц)

[Q] 

спс
[Профиль]  [ЛС] 

NektoWaso

Флибустьер

Пост 04-Ноя-2013 14:26 (спустя 4 месяца 16 дней)

[Q] 

культовое кино-кино эпохи!! рекомендуется!
[Профиль]  [ЛС] 
Показать сообщения:    
Ответить на тему

Текущее время: Сегодня 01:49

Часовой пояс: GMT + 4



Вы не можете начинать темы
Вы не можете отвечать на сообщения
Вы не можете редактировать свои сообщения
Вы не можете удалять свои сообщения
Вы не можете голосовать в опросах
Вы не можете прикреплять файлы к сообщениям
Вы не можете скачивать файлы

▼ Вниз