ML
     
  Уважаемый Гость!
Вы можете поддержать проект и зарегистрироваться у наших партнеров - онлайн-стратегия MyLands. При регистрации в игре Вы получите код, который сможете активировать после регистрации на pirat.ca и получить 1000 дублонов.

Ваш код:
c89b4b6523eaac3173e9a9c062ac1a19db575961
 
     

Белый Бим - Черное ухо (Станислав Ростоцкий) [1976 г., драма, DVDRip]

Ответить на тему
 
Автор
Сообщение

Пост 27-Апр-2012 15:07

[Q] 

megamastor

Белый Бим - Черное ухо
Год выпуска: 1976
Жанр: драма
Продолжительность: 01:30:00; 01:22:27 - 2 серии
Режиссер: Станислав Ростоцкий
В ролях: Вячеслав Тихонов, Валентина Владимирова, Михаил Дадыко, Иван Рыжов, Ирина Шевчук, Михаил Зимин, Геннадий Кочкожаров, Римма Мануковская, Мария Скворцова, Анатолий Баранцев, Виталий Леонов, Любовь Соколова, Алескей Чернов, Дмитрий Барков, Раиса Рязанова, Георгий Светлани, Владимир Сергиенко, Вася Воробьёв, Аня Рыбникова, Серёжа Шевляков, Иван Жеваго, Бронислава Захарова, Зоя Земнухова, Фёдор Корчагин, Николай Погодин, Светлана Харитонова, Фёдор Екатериничев, Галина Комарова, Андрей Мартынов, Алексей Миронов, Татьяна Никтина, Владимир Разумовский
Описание: Трогательная лирическая киноповесть о судьбе собаки, теряющей любимого хозяина, об отношении людей к «братьям меньшим», которое как рентгеном просвечивает души, выявляя в одних низость и мелочную подлость, а в других — благородство, способность сострадать и любить…
Источник/Качество: DVDRip
Формат: AVI
Видео кодек: XviD
Аудио кодек: MP3
Видео: 608x304 (2.00:1), 25 fps, XviD build 64 ~1067 kbps avg, 0.23 bit/pixel
Аудио: 48 kHz, MPEG Layer 3, 2 ch, ~128.00 kbps avg
Общее
Полное имя : Belyy Bim - Chernoye ukho\Belyy Bim - Chernoye ukho - 1 seriya.avi
Формат : AVI
Формат/Информация : Audio Video Interleave
Размер файла : 776 Мбайт
Продолжительность : 1 ч. 30 м.
Общий поток : 1205 Кбит/сек
Название фильма : Белый Бим - Черное ухо - 1 серия
Режиссёр : Last Boy Scout
Программа кодирования : VirtualDubMod 1.5.10.3 | www.virtualdub-fr.org || (build 2550/release)
Правообладатель : pirat.ca 30.01.2012
Примечание : DVDRip
Видео
Идентификатор : 0
Формат : MPEG-4 Visual
Профиль формата : Advanced [email protected]
Параметр BVOP формата : 1
Параметр QPel формата : Нет
Параметр GMC формата : Без точки перехода
Параметр матрицы формата : Выборочная
Идентификатор кодека : XVID
Идентификатор кодека/Подсказка : XviD
Продолжительность : 1 ч. 30 м.
Битрейт : 1067 Кбит/сек
Ширина : 608 пикселей
Высота : 304 пикселя
Соотношение сторон : 2,000
Частота кадров : 25,000 кадров/сек
Цветовое пространство : YUV
Субдискретизация насыщенности : 4:2:0
Битовая глубина : 8 бит
Тип развёртки : Прогрессивная
Метод сжатия : С потерями
Бит/(Пиксели*Кадры) : 0.231
Размер потока : 687 Мбайт (89%)
Библиотека кодирования : XviD 64
Аудио
Идентификатор : 1
Формат : MPEG Audio
Версия формата : Version 1
Профиль формата : Layer 3
Идентификатор кодека : 55
Идентификатор кодека/Подсказка : MP3
Продолжительность : 1 ч. 29 м.
Вид битрейта : Постоянный
Битрейт : 128 Кбит/сек
Каналы : 2 канала
Частота : 48,0 КГц
Метод сжатия : С потерями
Размер потока : 82,4 Мбайт (11%)
Выравнивание : Соединение по промежуткам
Продолжительность промежутка : 40 мс. (1,00 видеокадр)
Время предзагрузки промежутка : 504 мс.
Библиотека кодирования : LAME3.99.1
--------------------------
Общее
Полное имя : Belyy Bim - Chernoye ukho\Belyy Bim - Chernoye ukho - 2 seriya.avi
Формат : AVI
Формат/Информация : Audio Video Interleave
Размер файла : 710 Мбайт
Продолжительность : 1 ч. 22 м.
Общий поток : 1205 Кбит/сек
Название фильма : Белый Бим - Черное ухо - 2 серия
Режиссёр : Last Boy Scout
Программа кодирования : VirtualDubMod 1.5.10.3 | www.virtualdub-fr.org || (build 2550/release)
Правообладатель : pirat.ca 30.01.2012
Примечание : DVDRip
Видео
Идентификатор : 0
Формат : MPEG-4 Visual
Профиль формата : Advanced [email protected]
Параметр BVOP формата : 1
Параметр QPel формата : Нет
Параметр GMC формата : Без точки перехода
Параметр матрицы формата : Выборочная
Идентификатор кодека : XVID
Идентификатор кодека/Подсказка : XviD
Продолжительность : 1 ч. 22 м.
Битрейт : 1067 Кбит/сек
Ширина : 608 пикселей
Высота : 304 пикселя
Соотношение сторон : 2,000
Частота кадров : 25,000 кадров/сек
Цветовое пространство : YUV
Субдискретизация насыщенности : 4:2:0
Битовая глубина : 8 бит
Тип развёртки : Прогрессивная
Метод сжатия : С потерями
Бит/(Пиксели*Кадры) : 0.231
Размер потока : 629 Мбайт (89%)
Библиотека кодирования : XviD 64
Аудио
Идентификатор : 1
Формат : MPEG Audio
Версия формата : Version 1
Профиль формата : Layer 3
Идентификатор кодека : 55
Идентификатор кодека/Подсказка : MP3
Продолжительность : 1 ч. 22 м.
Вид битрейта : Постоянный
Битрейт : 128 Кбит/сек
Каналы : 2 канала
Частота : 48,0 КГц
Метод сжатия : С потерями
Размер потока : 75,5 Мбайт (11%)
Выравнивание : Соединение по промежуткам
Продолжительность промежутка : 40 мс. (1,00 видеокадр)
Время предзагрузки промежутка : 504 мс.
Библиотека кодирования : LAME3.99.1
Download / Скачать

Хотите скачать бесплатно? Зарегистрируйтесь на сайте (ссылка на регистрацию). Pirat.ca - самый быстрый торрент трекер в рунете!

Как скачивать  ·   Что такое торрент  ·   Рейтинг и ограничения

Пост 27-Апр-2012 15:22 (спустя 14 минут)

Топик был перенесен из форума Наше Кино в форум Советское кино

Linnan
 

abc7

Гроза морей

464

Пост 27-Апр-2012 17:24 (спустя 2 часа 17 минут)

[Q] 

Будучи маленьким рыдал просматривая фильм.
[Профиль]  [ЛС] 

megamastor ®

2827

Пост 27-Апр-2012 20:31 (спустя 3 часа)

[Q] 

Будучи маленьким рыдал просматривая фильм.
Та же тема !-)
[Профиль]  [ЛС] 

kufre

Корсар

3086

Пост 03-Май-2012 10:24 (спустя 5 дней)

[Q] 

Спасибо за раздачу!

_________________
[Профиль]  [ЛС] 
Показать сообщения:    
Ответить на тему

Текущее время: Сегодня 22:29

Часовой пояс: GMT + 4



Вы не можете начинать темы
Вы не можете отвечать на сообщения
Вы не можете редактировать свои сообщения
Вы не можете удалять свои сообщения
Вы не можете голосовать в опросах
Вы не можете прикреплять файлы к сообщениям
Вы не можете скачивать файлы

▼ Вниз