ML
     
  Уважаемый Гость!
Вы можете поддержать проект и зарегистрироваться у наших партнеров - онлайн-стратегия MyLands. При регистрации в игре Вы получите код, который сможете активировать после регистрации на pirat.ca и получить 1000 дублонов.

Ваш код:
8b752b428cf60a012c159dcae592cd1392170115
 
     

Раз на раз не приходится (Ара Габриелян) [1987 г., комедия, криминал, DVDRip]

Ответить на тему
 
Автор
Сообщение

Пост 27-Апр-2012 15:21

[Q] 

megamastor

Раз на раз не приходится
Год выпуска: 1987
Жанр: комедия, криминал
Продолжительность: 01:12:37
Режиссер: Ара Габриелян
В ролях: Армен Джигарханян
Леонид Куравлёв
Борислав Брондуков
Любовь Полищук
Виктор Кремлев
Г. Барков
Владимир Бурлаков
Виталий Варганов
Анатолий Веденкин
Мария Виноградова
Описание: Двух строителей (Куравлев и Брондуков), находящихся на плохом счету, и новенького (Джигарханян), только что выпущенного из тюрьмы, направляют на снос старых домов. Они начинают проводить там аукционы по продаже старой мебели, замков, ручек, шпингалетов. Разбирая старинную печь на изразцы, один из "предпринимателей" находит клад из золотых слитков, другой "справедливо" делит на троих, строго приказывая держать язык за зубами. Приятели решают выгодно пристроить находку...
Источник/Качество: DVDRip
Формат: AVI
Видео кодек: DivX
Аудио кодек: АС3
Видео: 720x368 (1.95:1), 25 fps, DivX Codec 1954 kbps
Аудио: 48 kHz, AC 3, 2 ch, ~192 kbps
Общее
Полное имя : Raz_na_raz_DVDRip.avi
Формат : AVI
Формат/Информация : Audio Video Interleave
Размер файла : 1,09 Гбайт
Продолжительность : 1 ч. 12 м.
Общий поток : 2155 Кбит/сек
Программа кодирования : VirtualDubModRus 1.5.10.2 (build 2542/release)
Библиотека кодирования : VirtualDubMod build 2542/release
Видео
Идентификатор : 0
Формат : MPEG-4 Visual
Параметр BVOP формата : 1
Параметр QPel формата : Нет
Параметр GMC формата : Без точки перехода
Параметр матрицы формата : Default (H.263)
Режим смешивания : Сжатый битовый поток
Идентификатор кодека : DX50
Идентификатор кодека/Подсказка : DivX 5
Продолжительность : 1 ч. 12 м.
Битрейт : 1954 Кбит/сек
Ширина : 720 пикселей
Высота : 368 пикселей
Соотношение сторон : 1,957
Частота кадров : 25,000 кадров/сек
Цветовое пространство : YUV
Субдискретизация насыщенности : 4:2:0
Битовая глубина : 8 бит
Тип развёртки : Прогрессивная
Метод сжатия : С потерями
Бит/(Пиксели*Кадры) : 0.295
Размер потока : 1015 Мбайт (91%)
Библиотека кодирования : DivX 6.8.3-6.8.4 (UTC 2008-06-07)
Аудио
Идентификатор : 1
Формат : AC-3
Формат/Информация : Audio Coding 3
Расширение режима : CM (complete main)
Идентификатор кодека : 2000
Продолжительность : 1 ч. 12 м.
Вид битрейта : Постоянный
Битрейт : 192 Кбит/сек
Каналы : 2 канала
Расположение каналов : Front: L R
Частота : 48,0 КГц
Битовая глубина : 16 бит
Метод сжатия : С потерями
Размер потока : 99,7 Мбайт (9%)
Выравнивание : Соединение по промежуткам
Продолжительность промежутка : 40 мс. (1,00 видеокадр)
Время предзагрузки промежутка : 512 мс.
Download / Скачать

Хотите скачать бесплатно? Зарегистрируйтесь на сайте (ссылка на регистрацию). Pirat.ca - самый быстрый торрент трекер в рунете!

Как скачивать  ·   Что такое торрент  ·   Рейтинг и ограничения



Последний раз редактировалось: megamastor (2012-04-27 15:29), всего редактировалось 2 раз(а)

Пост 27-Апр-2012 15:36 (спустя 14 минут)

Топик был перенесен из форума Наше Кино в форум Советское кино

Linnan
 

abc7

Гроза морей

464

Пост 27-Апр-2012 17:26 (спустя 2 часа 4 минуты)

[Q] 

Хорошая комедия,
[Профиль]  [ЛС] 

Peperonchino

Морской Волк

Пост 29-Июл-2012 17:28 (спустя 3 месяца 2 дня)

[Q] 

Спасибо огромное
[Профиль]  [ЛС] 
Показать сообщения:    
Ответить на тему

Текущее время: Сегодня 06:24

Часовой пояс: GMT + 4



Вы не можете начинать темы
Вы не можете отвечать на сообщения
Вы не можете редактировать свои сообщения
Вы не можете удалять свои сообщения
Вы не можете голосовать в опросах
Вы не можете прикреплять файлы к сообщениям
Вы не можете скачивать файлы

▼ Вниз