ML
     
  Уважаемый Гость!
Вы можете поддержать проект и зарегистрироваться у наших партнеров - онлайн-стратегия MyLands. При регистрации в игре Вы получите код, который сможете активировать после регистрации на pirat.ca и получить 1000 дублонов.

Ваш код:
0af2e2107bc9b5dd5ac2c09f9fc25e1a77c43887
 
     

Паспорт (Георгий Данелия) [1990 г., Kомедия, DVDRip]

Ответить на тему
 
Автор
Сообщение

Пост 27-Апр-2012 15:55

[Q] 

megamastor

Паспорт
Год выпуска: 1990
Жанр: Kомедия
Продолжительность: 01:37:30
Режиссер: Георгий Данелия
В ролях: Олег Янковский, Евгений Леонов, Армен Джигарханян, Жерар Дармон, Леонид Ярмольник, Мамука Кикалейшвили, Наталья Гундарева
Описание: Братья Папашвили, приехав в аэропорт, откуда один из них должен улететь в Израиль, захотели отпраздновать это событие и выпить шампанское. Захотели и выпили. И поэтому улетел не хормейстер детского хора Яков, а очень похожий на него брат - таксист Мераб. О его мытарствах-приключениях, выходящих за всякие пределы воображения, и рассказывает эта комедия с грустинкой. По стечению обстоятельств евреи его принимают за агента КГБ, работники советского торгпредства за провокатора, а вернуться домой официально он не может.
Источник/Качество: DVDRip
Формат: AVI
Видео кодек: DivX
Аудио кодек: AC3
Видео: DivX Pro Codec 6.5.1, 720x480, 29.970 fps, 1998kbps, 0.19 bit/pixel
Аудио: AC3 Dolby Digital, 6-ch, 48kHz, 448kbps
Общее
Полное имя : Pasport.avi
Формат : AVI
Формат/Информация : Audio Video Interleave
Размер файла : 1,67 Гбайт
Продолжительность : 1 ч. 37 м.
Общий поток : 2458 Кбит/сек
Программа кодирования : VirtualDubMod 1.5.4.1 (build 2178/release)
Библиотека кодирования : VirtualDub build 24415/release
Видео
Идентификатор : 0
Формат : MPEG-4 Visual
Параметр BVOP формата : 2
Параметр QPel формата : Нет
Параметр GMC формата : Без точки перехода
Параметр матрицы формата : Default (H.263)
Режим смешивания : Сжатый битовый поток
Идентификатор кодека : DX50
Идентификатор кодека/Подсказка : DivX 5
Продолжительность : 1 ч. 37 м.
Битрейт : 1998 Кбит/сек
Ширина : 720 пикселей
Высота : 480 пикселей
Соотношение сторон : 3:2
Частота кадров : 29,970 кадров/сек
Стандарт вещания : NTSC
Цветовое пространство : YUV
Субдискретизация насыщенности : 4:2:0
Битовая глубина : 8 бит
Тип развёртки : Прогрессивная
Метод сжатия : С потерями
Бит/(Пиксели*Кадры) : 0.193
Размер потока : 1,36 Гбайт (81%)
Библиотека кодирования : DivX 6.5.1 (UTC 2007-03)
Аудио
Идентификатор : 1
Формат : AC-3
Формат/Информация : Audio Coding 3
Расширение режима : CM (complete main)
Идентификатор кодека : 2000
Продолжительность : 1 ч. 37 м.
Вид битрейта : Постоянный
Битрейт : 448 Кбит/сек
Каналы : 6 каналов
Расположение каналов : Front: L C R, Side: L R, LFE
Частота : 48,0 КГц
Битовая глубина : 16 бит
Метод сжатия : С потерями
Размер потока : 312 Мбайт (18%)
Выравнивание : Разделение по промежуткам
Продолжительность промежутка : 33 мс. (1,00 видеокадр)
Время предзагрузки промежутка : 500 мс.
Download / Скачать

Хотите скачать бесплатно? Зарегистрируйтесь на сайте (ссылка на регистрацию). Pirat.ca - самый быстрый торрент трекер в рунете!

Как скачивать  ·   Что такое торрент  ·   Рейтинг и ограничения

Пост 27-Апр-2012 15:59 (спустя 3 минуты)

Топик был перенесен из форума Наше Кино в форум Советское кино

Linnan
 

abc7

Гроза морей

464

Пост 27-Апр-2012 17:25 (спустя 1 час 29 минут)

[Q] 

[Профиль]  [ЛС] 

jofrei53

Корсар

Пост 06-Авг-2013 23:06 (спустя 1 год 3 месяца)

[Q] 

Спасибо большое... Спасибо!!! Супер! Автору респект!!!
[Профиль]  [ЛС] 

СерКат

Корсар

Пост 01-Дек-2013 04:12 (спустя 3 месяца 24 дня)

[Q] 

фильм хороший,рекомендую,Армен Джигархонян превосходно играет
[Профиль]  [ЛС] 

Dominik

Морской Волк

68

Пост 18-Июн-2014 19:20 (спустя 6 месяцев 17 дней)

[Q] 

Супер!
Всем качать!!!

_________________
Раньше удивляло хамство, теперь удивляет вежливость!
[Профиль]  [ЛС] 
Показать сообщения:    
Ответить на тему

Текущее время: Сегодня 00:06

Часовой пояс: GMT + 4



Вы не можете начинать темы
Вы не можете отвечать на сообщения
Вы не можете редактировать свои сообщения
Вы не можете удалять свои сообщения
Вы не можете голосовать в опросах
Вы не можете прикреплять файлы к сообщениям
Вы не можете скачивать файлы

▼ Вниз