ML
     
  Уважаемый Гость!
Вы можете поддержать проект и зарегистрироваться у наших партнеров - онлайн-стратегия MyLands. При регистрации в игре Вы получите код, который сможете активировать после регистрации на pirat.ca и получить 1000 дублонов.

Ваш код:
e93cd9e43017f251127f220889864c05934e61c6
 
     

Зверобой (2 серии из 2) (Андрей Ростоцкий) [1990 г., Приключения, DVDRip]

Ответить на тему
 
Автор
Сообщение

Пост 27-Апр-2012 20:52

[Q] 

megamastor

Зверобой (2 серии из 2)
Год выпуска: 1990
Жанр: Приключения
Продолжительность: 02:23:35
Режиссер: Андрей Ростоцкий
В ролях: Андрей Хворов, Павел Абдалов, Георгий Пицхелаури, Елена Кондулайнен, Ольга Машная, Наталья Табакова, Борис Миронов, Эдуард Мурашов, Сергей Лоздейский, Всеволод Хабаров, Владимир Епископосян, Владимир Пивоваров, Владимир Бадов, Галина Кондрашова, Семен Заков
Описание: Фильм снят по мотивам одноименного романа Фенимора Купера, сюжет почти полностью соответствует книге. Середина XVII века. Колониальный раздел Северной Америки продолжается. Борьба Англии и Франции за территориальное господство разделила и сделала врагами индейские племена и европейских переселенцев. "Зверобой" - первая режиссерская работа Андрея Ростоцкого, он не стал сниматься в этом фильме сам, но принял участие в озвучивании главного героя. Фильм больше задумывался, как каскадерский и в дальнейшем в 1992 году уже целенаправленно выйдет полностью каскадерский фильм о каскадерах - "Мужская компания", где Андрей Ростоцкий выступил сценаристом, режиссером и сыграл главную роль, другие роли исполнили те же самые каскадеры, что и в фильме "Зверобой".
Источник/Качество: DVDRip
Формат: AVI
Видео кодек: XviD
Аудио кодек: AC3
Видео: 720x544 (1.32:1), 25 fps, XviD build 47 ~1848 kbps avg, 0.19 bit/pixel
Аудио: 48 kHz, AC3 Dolby Digital, 2/0 (L,R) ch, ~192.00 kbps avg
Общее
Полное имя : Zveroboy.1990.XviD.DVDRip.avi
Формат : AVI
Формат/Информация : Audio Video Interleave
Профиль формата : OpenDML
Размер файла : 2,05 Гбайт
Продолжительность : 2 ч. 23 м.
Общий поток : 2048 Кбит/сек
Программа кодирования : VirtualDubMod 1.5.4.1 (build 2178/release)
Библиотека кодирования : VirtualDubMod build 2178/release
Видео
Идентификатор : 0
Формат : MPEG-4 Visual
Профиль формата : Advanced [email protected]
Параметр BVOP формата : 1
Параметр QPel формата : Нет
Параметр GMC формата : Без точки перехода
Параметр матрицы формата : Выборочная
Идентификатор кодека : XVID
Идентификатор кодека/Подсказка : XviD
Продолжительность : 2 ч. 23 м.
Битрейт : 1847 Кбит/сек
Ширина : 720 пикселей
Высота : 544 пикселя
Соотношение сторон : 4:3
Частота кадров : 25,000 кадров/сек
Цветовое пространство : YUV
Субдискретизация насыщенности : 4:2:0
Битовая глубина : 8 бит
Тип развёртки : Прогрессивная
Метод сжатия : С потерями
Бит/(Пиксели*Кадры) : 0.189
Размер потока : 1,85 Гбайт (90%)
Библиотека кодирования : XviD 1.2.0.dev47 (UTC 2006-11-01)
Аудио
Идентификатор : 1
Формат : AC-3
Формат/Информация : Audio Coding 3
Расширение режима : CM (complete main)
Идентификатор кодека : 2000
Продолжительность : 2 ч. 23 м.
Вид битрейта : Постоянный
Битрейт : 192 Кбит/сек
Каналы : 2 канала
Расположение каналов : Front: L R
Частота : 48,0 КГц
Битовая глубина : 16 бит
Метод сжатия : С потерями
Размер потока : 197 Мбайт (9%)
Выравнивание : Разделение по промежуткам
Продолжительность промежутка : 96 мс. (2,40 видеокадра)
Время предзагрузки промежутка : 96 мс.
Язык : English
Download / Скачать

Хотите скачать бесплатно? Зарегистрируйтесь на сайте (ссылка на регистрацию). Pirat.ca - самый быстрый торрент трекер в рунете!

Как скачивать  ·   Что такое торрент  ·   Рейтинг и ограничения

Пост 27-Апр-2012 21:07 (спустя 14 минут)

Топик был перенесен из форума Наше Кино в форум Советское кино

Linnan
 

Obman

Корсар

Пост 28-Апр-2012 12:33 (спустя 15 часов)

[Q] 

Кино детства
[Профиль]  [ЛС] 

clark

Морской Волк

Пост 19-Авг-2012 09:22 (спустя 3 месяца 20 дней)

[Q] 


_________________
Последним смеётся тот, кто стреляет первым.
[Профиль]  [ЛС] 

LORD OR

Корсар

Пост 12-Ноя-2012 22:08 (спустя 2 месяца 24 дня)

[Q] 

[Профиль]  [ЛС] 
Показать сообщения:    
Ответить на тему

Текущее время: Сегодня 04:26

Часовой пояс: GMT + 4



Вы не можете начинать темы
Вы не можете отвечать на сообщения
Вы не можете редактировать свои сообщения
Вы не можете удалять свои сообщения
Вы не можете голосовать в опросах
Вы не можете прикреплять файлы к сообщениям
Вы не можете скачивать файлы

▼ Вниз