ML
     
  Уважаемый Гость!
Вы можете поддержать проект и зарегистрироваться у наших партнеров - онлайн-стратегия MyLands. При регистрации в игре Вы получите код, который сможете активировать после регистрации на pirat.ca и получить 1000 дублонов.

Ваш код:
ba41f7961e0b4717aed6a401d955262223b8f6c4
 
     

Не может быть! (Леонид Гайдай) [1975 г., Комедия, DVDRip-AVC]

Ответить на тему
 
Автор
Сообщение

Пост 27-Апр-2012 22:38

[Q] 

leha1975

Гроза морей

Не может быть!
Год выпуска: 1975
Жанр: Комедия
Продолжительность: 01:31:39
Режиссер: Леонид Гайдай
В ролях: Михаил Пуговкин, Вячеслав Невинный, Леонид Куравлев, Георгий Вицин, Михаил Кокшенов, Олег Даль, Савелий Краморов, Сергей Филиппов, Евгений Жариков, Валентина Теличкина
Описание: Сатирическая комедия по произведениям Михаила Зощенко. Фильм включает 3 новеллы о провинциальной жизни страны Советов: "Преступление и наказание", "Забавное приключение", Свадебное происшествие".
F:\pirat.ca\ðàçäà÷è-3\Íå ìîæåò áûòü.mkv
General
Complete name : F:\pirat.ca\ðàçäà÷è-3\Íå ìîæåò áûòü.mkv
Format : Matroska
File size : 1.40 GiB
Duration : 1h 31mn
Overall bit rate : 2 194 Kbps
Encoded date : UTC 2012-04-26 18:30:53
Writing application : mkvmerge v5.0.1 ('Es ist Sommer') built on Nov 6 2011 16:23:40
Writing library : libebml v1.2.2 + libmatroska v1.3.0
Video #1
ID : 1
Format : AVC
Format/Info : Advanced Video Codec
Format profile : [email protected]
Format settings, CABAC : Yes
Format settings, ReFrames : 4 frames
Format_Settings_GOP : N=1
Muxing mode : Container [email protected]
Codec ID : V_MPEG4/ISO/AVC
Duration : 1h 31mn
Bit rate : 1 958 Kbps
Nominal bit rate : 2 000 Kbps
Width : 720 pixels
Height : 520 pixels
Display aspect ratio : 1.385
Frame rate mode : Variable
Frame rate : 25.000 fps
Resolution : 8 bits
Colorimetry : 4:2:0
Scan type : Progressive
Bits/(Pixel*Frame) : 0.209
Stream size : 1.25 GiB (89%)
Writing library : x264 core 119 r2106 07efeb4
Encoding settings : cabac=1 / ref=4 / deblock=1:-1:-1 / analyse=0x3:0x113 / me=umh / subme=7 / psy=1 / psy_rd=1.00:0.10 / mixed_ref=1 / me_range=16 / chroma_me=1 / trellis=2 / 8x8dct=1 / cqm=0 / deadzone=21,11 / fast_pskip=0 / chroma_qp_offset=-3 / threads=12 / sliced_threads=0 / nr=0 / decimate=1 / interlaced=0 / bluray_compat=0 / constrained_intra=0 / bframes=3 / b_pyramid=2 / b_adapt=2 / b_bias=0 / direct=3 / weightb=1 / open_gop=0 / weightp=2 / keyint=250 / keyint_min=25 / scenecut=40 / intra_refresh=0 / rc_lookahead=50 / rc=2pass / mbtree=1 / bitrate=2000 / ratetol=1.0 / qcomp=0.60 / qpmin=0 / qpmax=69 / qpstep=4 / cplxblur=20.0 / qblur=0.5 / vbv_maxrate=50000 / vbv_bufsize=50000 / nal_hrd=none / ip_ratio=1.40 / aq=1:1.00
Audio #2
ID : 2
Format : AC-3
Format/Info : Audio Coding 3
Format_Settings_ModeExtension : CM (complete main)
Codec ID : A_AC3
Duration : 1h 31mn
Bit rate mode : Constant
Bit rate : 192 Kbps
Channel(s) : 2 channels
Channel positions : Front: L R
Sampling rate : 48.0 KHz
Stream size : 126 MiB (9%)
Источник/Качество: DVDRip-AVC
Формат: MKV
Видео кодек: H.264
Аудио кодек: AC3
Видео: AVC, 720 * 520, 25,000 кадр/сек, 1958 Кбит/сек, : 0.209 Бит/пик
Аудио: 48 kHz AC3 Dolby Digital 2/0 (L,R) ch 192.00 kbps avg
Download / Скачать

Хотите скачать бесплатно? Зарегистрируйтесь на сайте (ссылка на регистрацию). Pirat.ca - самый быстрый торрент трекер в рунете!

Как скачивать  ·   Что такое торрент  ·   Рейтинг и ограничения



Последний раз редактировалось: leha1975 (2012-04-27 23:01), всего редактировалось 2 раз(а)

Пост 27-Апр-2012 23:16 (спустя 37 минут)

Топик был перенесен из форума Наше Кино в форум Советское кино

Linnan
 

ksg111ban

Гроза морей

Пост 28-Апр-2012 17:16 (спустя 18 часов)

[Q] 

Неувядающие комедии Леонида Гайдая,наверное мы уже не увидим таких искромётных,захватывающих,доводящих до слёз от смеха, комедий у современных режисёров.
Увы но выше Ржевских и Суперов они не прыгнут.

_________________
[Профиль]  [ЛС] 

zpSaid

123

Пост 28-Апр-2012 22:38 (спустя 5 часов)

[Q] 

Классика вечна!

_________________
Джавдет трус! Абдула воин!
[Профиль]  [ЛС] 

abc7

Гроза морей

464

Пост 03-Май-2012 00:33 (спустя 4 дня)

[Q] 

мы уже не увидим таких искромётных,захватывающих,доводящих до слёз от смеха, комедий у современных режисёров.
Классика вечна!
Это не классика! Это советский юмор, одобренный совнаркомом! Умели снимать, сейчас пропустят всякое г....
[Профиль]  [ЛС] 

MCK095

Штурман

Пост 19-Июл-2012 09:50 (спустя 2 месяца 16 дней)

[Q] 

Это не классика! Это советский юмор, одобренный совнаркомом!
В широком смысле слова понятие "классический" стало употребляться по отношению к любому произведению, которое задало канон для своего жанра
[Профиль]  [ЛС] 
Показать сообщения:    
Ответить на тему

Текущее время: Сегодня 14:46

Часовой пояс: GMT + 4



Вы не можете начинать темы
Вы не можете отвечать на сообщения
Вы не можете редактировать свои сообщения
Вы не можете удалять свои сообщения
Вы не можете голосовать в опросах
Вы не можете прикреплять файлы к сообщениям
Вы не можете скачивать файлы

▼ Вниз