ML
     
  Уважаемый Гость!
Вы можете поддержать проект и зарегистрироваться у наших партнеров - онлайн-стратегия MyLands. При регистрации в игре Вы получите код, который сможете активировать после регистрации на pirat.ca и получить 1000 дублонов.

Ваш код:
5af7de75d3db09b6a37bc8bab71b0e87ccde73d6
 
     

Земля Санникова (Альберт С.Мкртчян, Леонид Попов) [1973 г., Приключения, DVDRip]

Ответить на тему
 
Автор
Сообщение

Пост 29-Апр-2012 14:22

[Q] 

megamastor

Земля Санникова
Год выпуска: 1973
Жанр: Приключения
Продолжительность: 01:29:38
Режиссер: Альберт С.Мкртчян, Леонид Попов
В ролях: Владислав Дворжецкий, Георгий Вицин, Олег Даль, Юрий Назаров, Махмуд Эсамбаев, Николай Гриценко, Алена Чухрай, Геворк Чепчян, Петр Абашеев, Турсун Куралиев, Екатерина Самбуева, Назира Мамбетова, Сергей Полежаев, Александр Суснин, Николай Крюков
Описание: Более ста лет загадка земли, увиденной Санниковым среди арктических льдов, волновала путешественников, но никто не мог достичь ее. Политический ссыльный Ильин снаряжает к недосягаемой земле экспедицию, которую финансирует золотопромышленник, надеющийся на то, что эта земля богата золотом...
Доп. информация: Идея снять фильм по роману Обручева принадлежала сценаристам Экспериментального творческого объединения «Мосфильма». Однако Альберт Мкртчян решил радикально переработать сценарий и обратился за этим к Марку Захарову, который, кстати, так и не прочёл книгу Обручева. Мкртчян вспоминал: «Мы ведь написали совсем другую историю, к сюжету Обручева она почти не имеет отношения. Единственное, что осталось от автора, — это идея: неизвестная земля, которую надо открыть».
Песни "И солнце всходило...", "Есть только миг между прошлым и будущим - именно он называется жизнь..." исполняет Олег Анофриев.
Источник/Качество: DVDRip
Формат: AVI
Видео кодек: DivX
Аудио кодек: AC3
Видео: 720x304 (2.37:1), 25 fps, DivX Codec 5.x or 6.x ~1725 kbps avg
Аудио: 48 kHz, AC3 Dolby Digital, 3/2 (L,C,R,l,r) + LFE ch, ~448.00 kbps avg
Общее
Полное имя : Zemlja_Sannikova_DVDRip.avi
Формат : AVI
Формат/Информация : Audio Video Interleave
Размер файла : 1,37 Гбайт
Продолжительность : 1 ч. 29 м.
Общий поток : 2183 Кбит/сек
Программа кодирования : VirtualDubModRus 1.5.10.2 (build 2542/release)
Библиотека кодирования : VirtualDubMod build 2542/release
Видео
Идентификатор : 0
Формат : MPEG-4 Visual
Параметр BVOP формата : Да
Параметр QPel формата : Нет
Параметр GMC формата : Без точки перехода
Параметр матрицы формата : Default (H.263)
Идентификатор кодека : DX50
Идентификатор кодека/Подсказка : DivX 5
Продолжительность : 1 ч. 29 м.
Битрейт : 1725 Кбит/сек
Ширина : 720 пикселей
Высота : 304 пикселя
Соотношение сторон : 2,35:1
Частота кадров : 25,000 кадров/сек
Цветовое пространство : YUV
Субдискретизация насыщенности : 4:2:0
Битовая глубина : 8 бит
Тип развёртки : Прогрессивная
Метод сжатия : С потерями
Бит/(Пиксели*Кадры) : 0.315
Размер потока : 1,08 Гбайт (79%)
Библиотека кодирования : DivX 6.8.3-6.8.4 (UTC 2008-06-07)
Аудио
Идентификатор : 1
Формат : AC-3
Формат/Информация : Audio Coding 3
Расширение режима : CM (complete main)
Идентификатор кодека : 2000
Продолжительность : 1 ч. 29 м.
Вид битрейта : Постоянный
Битрейт : 448 Кбит/сек
Каналы : 6 каналов
Расположение каналов : Front: L C R, Side: L R, LFE
Частота : 48,0 КГц
Битовая глубина : 16 бит
Метод сжатия : С потерями
Размер потока : 287 Мбайт (21%)
Выравнивание : Соединение по промежуткам
Продолжительность промежутка : 40 мс. (1,00 видеокадр)
Время предзагрузки промежутка : 512 мс.
Download / Скачать

Хотите скачать бесплатно? Зарегистрируйтесь на сайте (ссылка на регистрацию). Pirat.ca - самый быстрый торрент трекер в рунете!

Как скачивать  ·   Что такое торрент  ·   Рейтинг и ограничения

Пост 29-Апр-2012 15:18 (спустя 56 минут)

Топик был перенесен из форума Наше Кино в форум Советское кино

erchine
 

Co3oH

Штурман

Пост 30-Апр-2012 21:22 (спустя 1 день 6 часов)

[Q] 

Хорошее кино пасиба
[Профиль]  [ЛС] 

megamastor ®

2827

Пост 01-Май-2012 07:33 (спустя 10 часов)

[Q] 

Co3oH, Всегда пожалуйста!-)
[Профиль]  [ЛС] 

megamastor ®

2827

Пост 01-Май-2012 07:35 (спустя 1 минута)

[Q] 

Качайте, смотрите, на раздаче стараюсь быть 24 часа и 7 дней в неделю.
[Профиль]  [ЛС] 

abc7

Гроза морей

464

Пост 03-Май-2012 00:31 (спустя 1 день 16 часов)

[Q] 

[Профиль]  [ЛС] 

Sergunatt

Шкипер

Пост 14-Дек-2012 19:14 (спустя 7 месяцев 11 дней)

[Q] 

[Профиль]  [ЛС] 

UncleFather

Легенда

Пост 24-Мар-2013 20:57 (спустя 3 месяца 10 дней)

[Q] 


_________________
Одни боялись Пью, другие - Билли Бонса, а меня... меня боялся сам Флинт
[Профиль]  [ЛС] 
Показать сообщения:    
Ответить на тему

Текущее время: Сегодня 14:10

Часовой пояс: GMT + 4



Вы не можете начинать темы
Вы не можете отвечать на сообщения
Вы не можете редактировать свои сообщения
Вы не можете удалять свои сообщения
Вы не можете голосовать в опросах
Вы не можете прикреплять файлы к сообщениям
Вы не можете скачивать файлы

▼ Вниз