ML
     
  Уважаемый Гость!
Вы можете поддержать проект и зарегистрироваться у наших партнеров - онлайн-стратегия MyLands. При регистрации в игре Вы получите код, который сможете активировать после регистрации на pirat.ca и получить 1000 дублонов.

Ваш код:
9cfe162481db953a6549f32179d7b3900b8b8643
 
     

Свадьба в Малиновке (Андрей Тутышкин) [1967 г., комедия, BDRip]

Ответить на тему
 
Автор
Сообщение

Пост 06-Май-2012 10:55

[Q] 

megamastor

Свадьба в Малиновке
Год выпуска: 1967
Жанр: комедия
Продолжительность: 01:32:19
Режиссер: Андрей Тутышкин
В ролях: Владимир Самойлов, Людмила Алфимова, Валентина Лысенко, Евгений Лебедев, Зоя Фёдорова, Гелий Сысоев, Михаил Пуговкин, Николай Сличенко, Андрей Абрикосов, Григорий Абрикосов, Михаил Водяной, Тамара Носова, Эмма Трейвас, Алексей Смирнов, Маргарита Криницына, Александр Орлов, Юрий Шепелев, Любовь Тищенко, Александр Захаров, Раиса Пироженко, Алексей Захаров, Николай Пишванов, Лев Степанов, Валентина Николаенко
Описание: Идет гражданская воина. В украинской деревне то и дело меняется власть. Чтобы разделаться с бандой головорезов, красный командир уговаривает девушку Яринку разыграть ее свадьбу с атаманом...
Источник/Качество: BDRip
Формат: AVI
Видео кодек: XviD
Аудио кодек: AC3
Видео: 720x304 (2.37:1), 23.976 fps, XviD build 63 ~1801 kbps avg, 0.34 bit/pixel
Аудио: 48 kHz, AC3 Dolby Digital, 3/2 (L,C,R,l,r) + LFE ch, ~448 kbps
Общее
Формат : AVI
Формат/Информация : Audio Video Interleave
Размер файла : 1,46 Гбайт
Продолжительность : 1 ч. 32 м.
Общий поток : 2259 Кбит/сек
Название фильма : Svadba_V_Malinovke_1967_BDRip_Menen
Режиссёр : H.O.G.
Программа кодирования : VirtualDubMod 1.5.10.2 (build 2540/release)
Видео
Идентификатор : 0
Формат : MPEG-4 Visual
Профиль формата : Advanced [email protected]
Параметр BVOP формата : 1
Параметр QPel формата : Нет
Параметр GMC формата : Без точки перехода
Параметр матрицы формата : Выборочная
Идентификатор кодека : XVID
Идентификатор кодека/Подсказка : XviD
Продолжительность : 1 ч. 32 м.
Битрейт : 1802 Кбит/сек
Ширина : 720 пикселей
Высота : 304 пикселя
Соотношение сторон : 2,35:1
Частота кадров : 23,976 кадра/сек
Цветовое пространство : YUV
Субдискретизация насыщенности : 4:2:0
Битовая глубина : 8 бит
Тип развёртки : Прогрессивная
Метод сжатия : С потерями
Бит/(Пиксели*Кадры) : 0.343
Размер потока : 1,16 Гбайт (80%)
Библиотека кодирования : XviD 63
Аудио
Идентификатор : 1
Формат : AC-3
Формат/Информация : Audio Coding 3
Расширение режима : CM (complete main)
Идентификатор кодека : 2000
Продолжительность : 1 ч. 32 м.
Вид битрейта : Постоянный
Битрейт : 448 Кбит/сек
Каналы : 6 каналов
Расположение каналов : Front: L C R, Side: L R, LFE
Частота : 48,0 КГц
Битовая глубина : 16 бит
Метод сжатия : С потерями
Размер потока : 296 Мбайт (20%)
Выравнивание : Разделение по промежуткам
Продолжительность промежутка : 42 мс. (1,00 видеокадр)
Время предзагрузки промежутка : 500 мс.
Download / Скачать

Хотите скачать бесплатно? Зарегистрируйтесь на сайте (ссылка на регистрацию). Pirat.ca - самый быстрый торрент трекер в рунете!

Как скачивать  ·   Что такое торрент  ·   Рейтинг и ограничения

Пост 06-Май-2012 11:03 (спустя 7 минут)

Топик был перенесен из форума Наше Кино в форум Советское кино

Linnan
 

zpSaid

123

Пост 06-Май-2012 21:50 (спустя 10 часов)

[Q] 

"и че я в тебя такой влюбленный?"

_________________
Джавдет трус! Абдула воин!
[Профиль]  [ЛС] 

бади

Лоцман

Пост 17-Июл-2014 20:56 (спустя 2 года 2 месяца)

[Q] 

а ведь классное старое-доброе КИНО! ay
[Профиль]  [ЛС] 

masany82

Шкипер

Пост 31-Июл-2014 17:10 (спустя 13 дней)

[Q] 

а ведь классное старое-доброе КИНО Супер!
[Профиль]  [ЛС] 

R_O_Z_A

Морской Волк

Пост 25-Фев-2015 23:08 (спустя 6 месяцев 25 дней)

[Q] 

Старое-доброе кино. Раздающему респект!
[Профиль]  [ЛС] 

kolegy1

Морской Волк

Пост 06-Мар-2015 20:50 (спустя 8 дней)

[Q] 

Можно смотреть бесконечно!!! Супер! Зуб даю...

_________________
Я знаю только то, что ничего не знаю, но другие не знают и этого.
[Профиль]  [ЛС] 

Семен

Морской Волк

Пост 25-Мар-2015 20:45 (спустя 18 дней)

[Q] 

Вечное кино для души Супер! Автору респект!!!
[Профиль]  [ЛС] 

СерКат

Корсар

Пост 09-Май-2015 00:54 (спустя 1 месяц 14 дней)

[Q] 

ничего нового не скажу,выше все сказано,СПАСИБО Лови бочку Всем качать!!!
[Профиль]  [ЛС] 
Показать сообщения:    
Ответить на тему

Текущее время: Сегодня 06:05

Часовой пояс: GMT + 4



Вы не можете начинать темы
Вы не можете отвечать на сообщения
Вы не можете редактировать свои сообщения
Вы не можете удалять свои сообщения
Вы не можете голосовать в опросах
Вы не можете прикреплять файлы к сообщениям
Вы не можете скачивать файлы

▼ Вниз