ML
     
  Уважаемый Гость!
Вы можете поддержать проект и зарегистрироваться у наших партнеров - онлайн-стратегия MyLands. При регистрации в игре Вы получите код, который сможете активировать после регистрации на pirat.ca и получить 1000 дублонов.

Ваш код:
ca44e9295b9b8527ba1c339c20494f70782efea6
 
     

Игла (Рашид Нугманов) [1988 г., Драма, DVDRip]

Ответить на тему
 
Автор
Сообщение

Пост 22-Май-2012 16:40

[Q] 

megamastor

Игла
Год выпуска: 1988
Российская премьера: 16 сентября 1988
Производство: «Казахфильм»
Жанр: Драма
Продолжительность: 01:16:42
Режиссер: Рашид Нугманов
В ролях
Виктор Цой, Марина Смирнова, Петр Мамонов, Александр Баширов, Архимед Искаков, Геннадий Люй, Александр Конкс, Рахимжан Абдыкадыров, Райхан Канатбаев, Айхан Чатаева, Владимир Даниленко, Гpигopий Эпштeйн, Mapaт Aзимбaeв, Epнap Aбилeв, Pуcтeм Taжибaeв, Игopь Cтapцeв
Описание
Моро (Виктор Цой) приезжает в Алма-Ату, с целью выбить денежный долг из Спартака, и останавливается у своей старой подруги Дины (Марина Смирнова). Вскоре он узнаёт, что она стала наркоманкой, а её квартира превратилась в притон и хранилище наркотиков. Моро увозит девушку к Аральскому морю, где Дина начинает выздоравливать. Однако после возвращения в город всё начинается сначала. Тогда Моро решает расправиться с поставщиками наркотиков. Однако за одним из поставщиков, Артуром (Пётр Мамонов), стоят влиятельные люди, которые мстят Моро одной зимней ночью.
КиноПоиск
Источник/Качество: DVDRip
Формат: AVI
Видео кодек: XviD
Аудио кодек: AC3
Видео: 704x544 (1.29:1), 25 fps, XviD ~2262 kbps avg, 0.24 bit/pixel
Аудио: 48 kHz, AC3 Dolby Digital, 3/2 (L,C,R,l,r) + LFE ch, ~448.00 kbps avg
1988 — Приз киноклубов в конкурсе «Особый взгляд» на Кинофестивале «Золотой Дюк» в Одессе.
1990 — Главный приз Международного кинофестиваля в Нюрнберге.
Общее
Формат : AVI
Формат/Информация : Audio Video Interleave
Размер файла : 1,46 Гбайт
Продолжительность : 1 ч. 16 м.
Общий поток : 2720 Кбит/сек
Название фильма : Игла
Режиссёр : zim2001
Программа кодирования : VirtualDubMod 1.5.10.2 (build 2540/release)
Видео
Идентификатор : 0
Формат : MPEG-4 Visual
Профиль формата : Advanced [email protected]
Параметр BVOP формата : 1
Параметр QPel формата : Нет
Параметр GMC формата : Без точки перехода
Параметр матрицы формата : Default (MPEG)
Идентификатор кодека : XVID
Идентификатор кодека/Подсказка : XviD
Продолжительность : 1 ч. 16 м.
Битрейт : 2263 Кбит/сек
Ширина : 704 пикселя
Высота : 544 пикселя
Соотношение сторон : 1,294
Частота кадров : 25,000 кадров/сек
Цветовое пространство : YUV
Субдискретизация насыщенности : 4:2:0
Битовая глубина : 8 бит
Тип развёртки : Прогрессивная
Метод сжатия : С потерями
Бит/(Пиксели*Кадры) : 0.236
Размер потока : 1,21 Гбайт (83%)
Библиотека кодирования : XviD 1.2.0.dev47 (UTC 2006-11-01)
Аудио
Идентификатор : 1
Формат : AC-3
Формат/Информация : Audio Coding 3
Расширение режима : CM (complete main)
Идентификатор кодека : 2000
Продолжительность : 1 ч. 16 м.
Вид битрейта : Постоянный
Битрейт : 448 Кбит/сек
Каналы : 6 каналов
Расположение каналов : Front: L C R, Side: L R, LFE
Частота : 48,0 КГц
Битовая глубина : 16 бит
Метод сжатия : С потерями
Размер потока : 246 Мбайт (16%)
Выравнивание : Разделение по промежуткам
Продолжительность промежутка : 40 мс. (1,00 видеокадр)
Время предзагрузки промежутка : 500 мс.
Download / Скачать

Хотите скачать бесплатно? Зарегистрируйтесь на сайте (ссылка на регистрацию). Pirat.ca - самый быстрый торрент трекер в рунете!

Как скачивать  ·   Что такое торрент  ·   Рейтинг и ограничения

Пост 22-Май-2012 16:59 (спустя 18 минут)

Топик был перенесен из форума Наше Кино в форум Советское кино

ara1205
 

Дядя Витя

53870

Пост 22-Май-2012 17:05 (спустя 24 минуты)

[Q] 

какое было время интересное ...


_________________
?
[Профиль]  [ЛС] 

megamastor ®

2827

Пост 23-Май-2012 21:07 (спустя 1 день 4 часа)

[Q] 

- Люди в мире разделяются на две категории, - одни сидят на трубах, а другим нужны...
[Профиль]  [ЛС] 

megamastor ®

2827

Пост 09-Июн-2012 20:48 (спустя 16 дней)

[Q] 

другим нужны деньги ...
а на трубе сидишь ты ....
[Профиль]  [ЛС] 

yasha122

Морской Волк

Пост 30-Июн-2012 14:45 (спустя 20 дней)

[Q] 

[Профиль]  [ЛС] 

hypocritic

Шкипер

Пост 18-Авг-2013 12:11 (спустя 1 год 1 месяц)

[Q] 

Супер! Автору респект!!!
[Профиль]  [ЛС] 

AndyFox

Корсар

376

Пост 05-Янв-2014 23:49 (спустя 4 месяца 18 дней)

[Q] 

Хороший, запоминающийся фильм.

_________________
Torrent.
[Профиль]  [ЛС] 

kirmiron

Морской Волк

Пост 14-Сен-2014 04:55 (спустя 8 месяцев 8 дней)

[Q] 

Спасибо. Хороший фильм. И Цой как живой))) Автору респект!!!
[Профиль]  [ЛС] 

alexman

Корсар

Пост 15-Авг-2015 20:02 (спустя 11 месяцев 1 день)

[Q] 

Спасибо! Цой жив!
[Профиль]  [ЛС] 

Дядя Витя

53870

Пост 15-Авг-2015 20:14 (спустя 11 минут)

[Q] 


_________________
?
[Профиль]  [ЛС] 

polyk

Флибустьер

Пост 29-Сен-2015 15:12 (спустя 1 месяц 13 дней)

[Q] 

качают все!!!!супер КИНО
[Профиль]  [ЛС] 

Дядя Витя

53870

Пост 30-Сен-2015 19:37 (спустя 1 день 4 часа)

[Q] 

Заглавный скрин кончился, megamastor перезалил бы... Раздача-то хорошая ведь такая...

_________________
?
[Профиль]  [ЛС] 

xzxscorpxzx

Флибустьер

Пост 09-Фев-2016 03:10 (спустя 4 месяца 8 дней)

[Q] 

супер,спасибо!
[Профиль]  [ЛС] 
Показать сообщения:    
Ответить на тему

Текущее время: Сегодня 16:17

Часовой пояс: GMT + 4



Вы не можете начинать темы
Вы не можете отвечать на сообщения
Вы не можете редактировать свои сообщения
Вы не можете удалять свои сообщения
Вы не можете голосовать в опросах
Вы не можете прикреплять файлы к сообщениям
Вы не можете скачивать файлы

▼ Вниз