ML
     
  Уважаемый Гость!
Вы можете поддержать проект и зарегистрироваться у наших партнеров - онлайн-стратегия MyLands. При регистрации в игре Вы получите код, который сможете активировать после регистрации на pirat.ca и получить 1000 дублонов.

Ваш код:
34514219cfad5497a1822ecc1269bea77988f9aa
 
     

Трембита (Олег Николаевский) [1968 г., Комедия, мюзикл, DVDRip]

Ответить на тему
 
Автор
Сообщение

Пост 06-Дек-2011 16:46

[Q] 

Linnan

Трембита
Год выпуска: 1968
Жанр: Комедия, мюзикл
Продолжительность: 01:27:27
Режиссер: Олег Николаевский
В ролях: Евгений Весник, Ольга Аросева, Алексей Чернов, Николай Трофимов, Людмила Купина, Юлия Вуккерт, Иван Переверзев, Савелий Крамаров, Сергей Блинников, Игорь Класс
Описание: Только что отгремела Вторая мировая война. Бывший дворецкий местного графа, что бежал вместе с немцами, тайно вернулся в село, чтобы найти хозяйский клад, присвоить его и зажить припеваючи. Однако из этой затеи ничего не вышло…
Источник/Качество: DVDRip
Формат: MKV
Видео кодек: XviD
Аудио кодек: MP3
Видео: 544х368, 25 fps, 963 kbps, 0.192 b/px
Аудио: 128 kbps, 2 ch, 48 КHz


Общее
Уникальный идентификатор : 187696100255586586680024796200275167007 (0x8D34F438DD7E9B6AA08FA426230E471F)
Полное имя : F:\Загрузки торрента\Trembita.mkv
Формат : Matroska
Версия формата : Version 2
Размер файла : 696 Мбайт
Продолжительность : 1 ч. 27 м.
Общий поток : 1113 Кбит/сек
Дата кодирования : UTC 2011-12-06 14:26:55
Программа кодирования : mkvmerge v2.8.0 ('The Tree') built on May 9 2009 18:02:06
Библиотека кодирования : libebml v0.7.7 + libmatroska v0.8.1
Видео
Идентификатор : 1
Формат : MPEG-4 Visual
Профиль формата : Advanced [email protected]
Параметр BVOP формата : Да
Параметр QPel формата : Нет
Параметр GMC формата : Без точки перехода
Параметр матрицы формата : Default (H.263)
Идентификатор кодека : XVID
Идентификатор кодека/Подсказка : XviD
Продолжительность : 1 ч. 27 м.
Битрейт : 963 Кбит/сек
Ширина : 544 пикселя
Высота : 368 пикселей
Соотношение сторон : 3:2
Частота кадров : 25,000 кадров/сек
Цветовое пространство : YUV
Субдискретизация насыщенности : 4:2:0
Битовая глубина : 8 бит
Тип развёртки : Прогрессивная
Метод сжатия : С потерями
Бит/(Пиксели*Кадры) : 0.192
Размер потока : 602 Мбайт (87%)
Библиотека кодирования : XviD 1.2.0SMP (UTC 2006-01-08)
Аудио
Идентификатор : 2
Формат : MPEG Audio
Версия формата : Version 1
Профиль формата : Layer 3
Режим : Joint stereo
Расширение режима : MS Stereo
Идентификатор кодека : A_MPEG/L3
Идентификатор кодека/Подсказка : MP3
Продолжительность : 1 ч. 27 м.
Вид битрейта : Постоянный
Битрейт : 128 Кбит/сек
Каналы : 2 канала
Частота : 48,0 КГц
Метод сжатия : С потерями
Размер потока : 80,1 Мбайт (12%)
Библиотека кодирования : LAME3.97b
Настройки программы : -m j -V 4 -q 2 -lowpass 17 -b 128
Download / Скачать

Хотите скачать бесплатно? Зарегистрируйтесь на сайте (ссылка на регистрацию). Pirat.ca - самый быстрый торрент трекер в рунете!

Как скачивать  ·   Что такое торрент  ·   Рейтинг и ограничения

Пост 06-Дек-2011 22:53 (спустя 6 часов)

Топик был перенесен из форума Наше Кино в форум Советское кино

Skinwalker
 

ZSM98

Штурман

Пост 22-Дек-2011 15:55 (спустя 15 дней)

[Q] 

Народ дайте кино посмотреть, встаньте на раздачу! Ну пафу!
[Профиль]  [ЛС] 
Показать сообщения:    
Ответить на тему

Текущее время: Сегодня 07:54

Часовой пояс: GMT + 4



Вы не можете начинать темы
Вы не можете отвечать на сообщения
Вы не можете редактировать свои сообщения
Вы не можете удалять свои сообщения
Вы не можете голосовать в опросах
Вы не можете прикреплять файлы к сообщениям
Вы не можете скачивать файлы

▼ Вниз