ML
     
  Уважаемый Гость!
Вы можете поддержать проект и зарегистрироваться у наших партнеров - онлайн-стратегия MyLands. При регистрации в игре Вы получите код, который сможете активировать после регистрации на pirat.ca и получить 1000 дублонов.

Ваш код:
500cb7bd8d2cec9a8aba647a87ce41c4b76f06bd
 
     

Гангстеры в океане (Степан Пучинян) [1991 г., Боевик, приключения, DVDRip] [2 серии из 2]

Ответить на тему
 
Автор
Сообщение

Пост 24-Май-2012 15:57

[Q] 

megamastor

Гангстеры в океане (2 серии из 2)
Год выпуска: 1991
Российская премьера: ноябрь 1992
Дата выхода DVD: 23 марта 2010
Производство: к/с им. М.Горького, Американо-советская киноинициатива, Hong Joong Corporation
Жанр: Боевик, приключения
Продолжительность: 02:06:54
Режиссер: Степан Пучинян
В ролях
Александр Михайлов, Лев Дуров, Леонид Куравлёв, Анна Самохина, Петерис Гаудиньш, Армен Джигарханян, Сергей Крылов, Димаш (Динмухамет) Ахимов, Юрий Катин-Ярцев, Олег Ли, Иван Ванян, Лаймонас Норейка, Далюс Мертинас, Артур Амбарцумян, Роман Ассонгба, Петерис Крыловс
Описание
Советский корабль, везущий руду в Сан-Франциско, увидел горящий в ночи американский сухогруз. Естественно, наши ребята спасли экипаж, а спасенные американцы заявили, что на них напала советская подводная лодка. Вскоре и советское судно было захвачено "филиппинскими" военными. Оказалось, что в руде были спрятаны снаряды и непонятные баллоны, после чего и русские, и американцы были доставлены на какую-то базу. Средней паршивости боевик со стрельбой, погонями и любовью между судовым врачом Самохиной и капитаном американцев. Сергей Крылов в роли американца говорит по-русски с акцентом. Трюки: В. Жариков. Американо-советская киноинициатива. (М. Иванов)
КиноПоиск
Источник/Качество: DVDRip
Формат: AVI
Видео кодек: DivX
Аудио кодек: MP3
Видео: 640x480 (1.33:1), 25 fps, DivX Codec 5.2.1 build 1328 ~1407 kbps avg, 0.18 bit/pixel
Аудио: 48 kHz, MPEG Layer 3, 2 ch, ~128.00 kbps avg
Общее
Формат : AVI
Формат/Информация : Audio Video Interleave
Размер файла : 1,37 Гбайт
Продолжительность : 2 ч. 6 м.
Общий поток : 1543 Кбит/сек
Программа кодирования : VirtualDubMod 1.5.4.1 (build 2178/release)
Библиотека кодирования : VirtualDubMod build 2178/release
Видео
Идентификатор : 0
Формат : MPEG-4 Visual
Параметр BVOP формата : 1
Параметр QPel формата : Нет
Параметр GMC формата : Без точки перехода
Параметр матрицы формата : Default (H.263)
Режим смешивания : Сжатый битовый поток
Идентификатор кодека : DX50
Идентификатор кодека/Подсказка : DivX 5
Продолжительность : 2 ч. 6 м.
Битрейт : 1408 Кбит/сек
Ширина : 640 пикселей
Высота : 480 пикселей
Соотношение сторон : 4:3
Частота кадров : 25,000 кадров/сек
Цветовое пространство : YUV
Субдискретизация насыщенности : 4:2:0
Битовая глубина : 8 бит
Тип развёртки : Прогрессивная
Метод сжатия : С потерями
Бит/(Пиксели*Кадры) : 0.183
Размер потока : 1,25 Гбайт (91%)
Библиотека кодирования : DivX 5.2.1 (WaffleDay) (UTC 2004-09-08)
Аудио
Идентификатор : 1
Формат : MPEG Audio
Версия формата : Version 1
Профиль формата : Layer 3
Режим : Joint stereo
Расширение режима : MS Stereo
Идентификатор кодека : 55
Идентификатор кодека/Подсказка : MP3
Продолжительность : 2 ч. 6 м.
Вид битрейта : Постоянный
Битрейт : 128 Кбит/сек
Каналы : 2 канала
Частота : 48,0 КГц
Метод сжатия : С потерями
Размер потока : 116 Мбайт (8%)
Выравнивание : Соединение по промежуткам
Продолжительность промежутка : 80 мс. (2,00 видеокадра)
Время предзагрузки промежутка : 504 мс.
Библиотека кодирования : LAME3.98r
Настройки программы : -m j -V 4 -q 2 -lowpass 17 -b 128
Download / Скачать

Хотите скачать бесплатно? Зарегистрируйтесь на сайте (ссылка на регистрацию). Pirat.ca - самый быстрый торрент трекер в рунете!

Как скачивать  ·   Что такое торрент  ·   Рейтинг и ограничения

Пост 24-Май-2012 16:41 (спустя 43 минуты)

Топик был перенесен из форума Наше Кино в форум Советское кино

ara1205
 
Показать сообщения:    
Ответить на тему

Текущее время: Сегодня 01:50

Часовой пояс: GMT + 4



Вы не можете начинать темы
Вы не можете отвечать на сообщения
Вы не можете редактировать свои сообщения
Вы не можете удалять свои сообщения
Вы не можете голосовать в опросах
Вы не можете прикреплять файлы к сообщениям
Вы не можете скачивать файлы

▼ Вниз