ML
     
  Уважаемый Гость!
Вы можете поддержать проект и зарегистрироваться у наших партнеров - онлайн-стратегия MyLands. При регистрации в игре Вы получите код, который сможете активировать после регистрации на pirat.ca и получить 1000 дублонов.

Ваш код:
5f4e94775bc0501caff7b254e79328d304c817d9
 
     

Женитьба Бальзаминова (Константин Воинов) [1964 г., комедия, история, DVDRip]

Ответить на тему
 
Автор
Сообщение

Пост 07-Дек-2011 14:23

[Q] 

kufre

Корсар

Женитьба Бальзаминова
Год выпуска: 1964
Жанр: комедия, история
Продолжительность: 01:24:40
Режиссер: Константин Воинов
В ролях: Георгий Вицин, Людмила Шагалова, Лидия Смирнова, Екатерина Савинова, Жанна Прохоренко, Людмила Гурченко, Тамара Носова, Николай Крючков, Ролан Быков, Инна Макарова, Надежда Румянцева, Татьяна Конюхова, Нонна Мордюкова, Геннадий Донягин, Виктор Лазарев, Феликс Сергеев, Григорий Шпигель, Виталий Татаринов, Вадим Завьялов
Описание: Мелкий чиновник Бальзаминов мечтает жениться — и обязательно на богатой. Забавные ситуации, в которых то и дело оказываются герой, пытающийся найти невесту, составляют сюжет одной из популярнейших отечественных кинолент.
Доп. информация:
По мотивам трилогии А. Н. Островского "Праздничный сон до обеда", "За чем пойдешь, то и найдешь", "Две собаки дерутся - третья не приставай".
Георгию Вицину, который играл, по замыслу картины, молодого (25 лет) человека Бальзаминова, на момент съёмок было уже 46 лет. А Людмила Шагалова, сыгравшая роль матушки героя, на 6 лет младше самого Вицина. Вицина перед съёмкой долго гримировали, чтобы сильнее омолодить. Потом он по этому поводу шутил: "Женитьба забальзамированного".
Фильм снимался в Суздале.
№1
Ироничная, тонкая, психологическая (я бы даже сказала) комедия А. Н. Островского. Сюжет легко подошёл бы современному сериалу. А что? Катя Пушкарёва сколько серий счастье своё искала? Бальзаминов-то чем хуже? Он и девушку похищал, и о богатстве мечтал, и сны смотрел… Что ещё-то? Этого вполне хватит. Однако и Островский Александр Николаевич (драматург ХІХ века), и Воинов Константин Наумович (режиссер ХХ века) к злополучным исканиям своего героя подошли более ёмко. Поэтому перед нами произведение великое. Обращаться с ним нужно бережно и с любовью. «Чему может научить комедия, снятая в 1965 году по произведению, написанному ну о-о-очень давно?» — засомневается кто-то. А вы присмотритесь внимательнее: вдруг обнаружите в героях картины себя? Ведь проблема женитьбы-развода на сегодняшний день остро стоит в нашем обществе! А если подходить к ней без юмора, то вообще не стоит подходить.
Георгий Вицин прекрасно исполнил роль Бальзаминова — романтика-фантазёра-бездельника. Хочется обратить внимание на героиню Екатерины Савиновой (актрисы с трагической судьбой). Её Матрёна — персонаж второго плана, но какая игра! В картине вообще много звёзд советского кинематографа.
Съёмки проходили в городе Нежине. Деревянные дома, церкви, узенькие улочки… Цвета в картине кажутся мне неестетсвенно яркими. Это, видимо, качество плёнки. Поэтому фильм воспринимаю как полусказку, полубыль…
Ироничная, тонкая, психологичевкая комедия… А в конце становится немного грустно. Но эта грусть дорогого стоит…
Классика бывает интересной…
Этот фильм старше меня, но, к счастью, в первый раз я увидела его совсем недавно: не в детстве и не в легкомысленной юности, а в более зрелом возрасте. Возможно, поэтому он и произвел на меня такое впечатление. Это не какая-нибудь тупая развлекуха, не безмозглые стрелялки-убивалки…
Ведь большинство современных фильмов-однодневок смотришь, скрипя зубами: играют отвратно, но терпишь, чтобы банально узнать «чем все закончится». Хотя в последнее время я уже и не терплю, просто выключаю — жаль своего времени.
Но и большинство старых фильмов сегодня кажутся чересчур простыми и наивными, а потому тоже неинтересными.
Фильм «Женитьба Бальзаминова» к этой категории не относится. Он снят настолько хорошо, что при его просмотре даже не слишком интересен сюжет (не важно, чем закончится), просто наслаждаешься тем, что творится на экране, и жалеешь, что фильм такой короткий!
Одно слово — классика!
Преклоняюсь перед его создателями, все были на высоте: и драматург, и сценарист, и режиссер, и оператор, и композитор, и все актеры! Редкий успех! Фильм занял достойное место в моей домашней коллекции.
Формат : AVI
Формат/Информация : Audio Video Interleave
Размер файла : 1,37 Гбайт
Продолжительность : 1 ч. 24 м.
Общий поток : 2313 Кбит/сек
Программа кодирования : VirtualDubMod 1.5.4.1 (build 2178/release)
Библиотека кодирования : VirtualDubMod build 2178/release
Видео
Идентификатор : 0
Формат : MPEG-4 Visual
Параметр BVOP формата : 1
Параметр QPel формата : Нет
Параметр GMC формата : Без точки перехода
Параметр матрицы формата : Default (H.263)
Режим смешивания : Сжатый битовый поток
Идентификатор кодека : DX50
Идентификатор кодека/Подсказка : DivX 5
Продолжительность : 1 ч. 24 м.
Битрейт : 1858 Кбит/сек
Ширина : 720 пикс.
Высота : 544 пикс.
Соотношение сторон : 4:3
Частота кадров : 25,000 кадр/сек
Цветовое пространство : YUV
Подвыборка цветности : 4:2:0
Битовая глубина : 8 бит
Тип развёртки : Прогрессивная
Метод сжатия : С потерями
Бит/(Пиксели*Кадры) : 0.190
Размер потока : 1,10 Гбайт (80%)
Библиотека кодирования : DivX 5.2.1 (WaffleDay) (UTC 2004-09-08)
Аудио
Идентификатор : 1
Формат : AC-3
Формат/Информация : Audio Coding 3
Расширение режима : CM (complete main)
Идентификатор кодека : 2000
Продолжительность : 1 ч. 24 м.
Вид битрейта : Постоянный
Битрейт : 448 Кбит/сек
Каналы : 6 каналов
Расположение каналов : Front: L C R, Side: L R, LFE
Частота : 48,0 КГц
Битовая глубина : 16 бит
Метод сжатия : С потерями
Задержка видео : 940 мс.
Размер потока : 271 Мбайт (19%)
Выравнивание : Разделение по промежуткам
Продолжительность промежутка : 96 мс. (2,40 видеокадра)
Время предзагрузки промежутка : 96 ms

Источник/Качество: DVDRip
Формат: AVI
Видео кодек: DivX
Аудио кодек: AC3
Видео: 720x544 (1.32:1), 25 fps, DivX Codec 5.2.1 build 1328 ~1858 kbps avg, 0.19 bit/pixel
Аудио: 48 kHz, AC3 Dolby Digital, 3/2 (L,C,R,l,r) + LFE ch, ~448 kbps





Download / Скачать

Хотите скачать бесплатно? Зарегистрируйтесь на сайте (ссылка на регистрацию). Pirat.ca - самый быстрый торрент трекер в рунете!

Как скачивать  ·   Что такое торрент  ·   Рейтинг и ограничения

Пост 07-Дек-2011 14:39 (спустя 15 минут)

Топик был перенесен из форума Наше Кино в форум Советское кино

goxakrauter
 

fat2010

Штурман

Пост 31-Янв-2012 00:05 (спустя 1 месяц 23 дня)

[Q] 

Спасибо раздающему за классику!И за качество!
[Профиль]  [ЛС] 

VaNo192

Корсар

Пост 02-Фев-2012 05:32 (спустя 2 дня 5 часов)

[Q] 

Весёлый фильм...
[Профиль]  [ЛС] 

abc7

Гроза морей

464

Пост 12-Фев-2012 23:57 (спустя 10 дней)

[Q] 

[Профиль]  [ЛС] 
Показать сообщения:    
Ответить на тему

Текущее время: Сегодня 15:36

Часовой пояс: GMT + 4



Вы не можете начинать темы
Вы не можете отвечать на сообщения
Вы не можете редактировать свои сообщения
Вы не можете удалять свои сообщения
Вы не можете голосовать в опросах
Вы не можете прикреплять файлы к сообщениям
Вы не можете скачивать файлы

▼ Вниз