ML
     
  Уважаемый Гость!
Вы можете поддержать проект и зарегистрироваться у наших партнеров - онлайн-стратегия MyLands. При регистрации в игре Вы получите код, который сможете активировать после регистрации на pirat.ca и получить 1000 дублонов.

Ваш код:
c89b4b6523eaac3173e9a9c062ac1a19db575961
 
     

Неисправимый лгун (Виллен Азаров) [1973 г., Комедия, DVDRip][internal release]

Ответить на тему
 
Автор
Сообщение

Пост 05-Июн-2012 18:47

[Q] 

megamastor

Неисправимый лгун
Год выпуска: 1973
Российская премьера: 24 мая 1974
Производство: Мосфильм
Жанр: Комедия
Продолжительность: 01:11:17
Режиссер: Виллен Азаров
В ролях
Георгий Вицин, Инна Макарова, Николай Прокопович, Эдита Пьеха, Владимир Этуш, А. Акекперов, Л. Бадко, Р. Байер, Лариса Барабанова, Валентина Березуцкая.
Описание
Доброму и доверчивому парикмахеру давно уже никто не верит, когда он подробнейшим образом оправдывается за свои опоздания. Но ведь с ним действительно каждый раз происходит что-то необыкновенное: то обед у эмира Бурухтании, то встреча с Эдитой Пьехой, то он мчится за мячиком своего соседа Вовки навстречу потоку автомашин…
КиноПоиск
Источник/Качество: DVDRip
Формат: AVI
Видео кодек: XviD
Аудио кодек: AC3
Видео: 720x416, 25 fps, 2167 Кбит/сек, XviD
Аудио: 48 kHz, AC3 Dolby Digital, 2 Ch, 192.00 kbps
Формат : AVI
Формат/Информация : Audio Video Interleave
Размер файла : 1,18 Гбайт
Продолжительность : 1 ч. 11 м.
Общий поток : 2369 Кбит/сек
Программа кодирования : VirtualDubMod 1.5.10.3 | www.virtualdub-fr.org || (build 2550/release)
Библиотека кодирования : VirtualDubMod build 2550/release
Видео
Идентификатор : 0
Формат : MPEG-4 Visual
Профиль формата : Advanced [email protected]
Параметр BVOP формата : 2
Параметр QPel формата : Нет
Параметр GMC формата : Без точки перехода
Параметр матрицы формата : Default (H.263)
Идентификатор кодека : XVID
Идентификатор кодека/Подсказка : XviD
Продолжительность : 1 ч. 11 м.
Битрейт : 2167 Кбит/сек
Ширина : 720 пикселей
Высота : 416 пикселей
Соотношение сторон : 1,731
Частота кадров : 25,000 кадров/сек
Цветовое пространство : YUV
Субдискретизация насыщенности : 4:2:0
Битовая глубина : 8 бит
Тип развёртки : Прогрессивная
Метод сжатия : С потерями
Бит/(Пиксели*Кадры) : 0.289
Размер потока : 1,08 Гбайт (91%)
Библиотека кодирования : XviD 1.2.1 (UTC 2008-12-04)
Аудио
Идентификатор : 1
Формат : AC-3
Формат/Информация : Audio Coding 3
Расширение режима : CM (complete main)
Параметр Endianness формата : Big
Идентификатор кодека : 2000
Продолжительность : 1 ч. 11 м.
Вид битрейта : Постоянный
Битрейт : 192 Кбит/сек
Каналы : 2 канала
Расположение каналов : Front: L R
Частота : 48,0 КГц
Битовая глубина : 16 бит
Метод сжатия : С потерями
Размер потока : 97,9 Мбайт (8%)
Выравнивание : Разделение по промежуткам
Продолжительность промежутка : 40 мс. (1,00 видеокадр)
Время предзагрузки промежутка : 500 мс.
Download / Скачать

Хотите скачать бесплатно? Зарегистрируйтесь на сайте (ссылка на регистрацию). Pirat.ca - самый быстрый торрент трекер в рунете!

Как скачивать  ·   Что такое торрент  ·   Рейтинг и ограничения



Последний раз редактировалось: megamastor (2012-10-30 13:03), всего редактировалось 5 раз(а)

Пост 05-Июн-2012 18:51 (спустя 3 минуты)

Топик был перенесен из форума Наше Кино в форум Советское кино

Linnan
 

nadabibak

Гроза морей

Пост 05-Июн-2012 21:23 (спустя 2 часа 35 минут)

[Q] 

Классная Советская комедия.
[Профиль]  [ЛС] 

MaXoR

Флибустьер

1475

Пост 06-Июн-2012 06:39 (спустя 9 часов)

[Q] 

Вот это Комедия и Актер классный.Через 40 лет после выпуска смешно и интересно.

_________________
Живы будем - не помрем!
[Профиль]  [ЛС] 

Mixrool

Корсар

Пост 06-Июн-2012 17:56 (спустя 11 часов)

[Q] 

О спасибо, всегда пересмотреть приятно!
[Профиль]  [ЛС] 

Nitro

Корсар

Пост 11-Июн-2012 23:50 (спустя 5 дней)

[Q] 

Классный фильмец. Жалко что такие фильмы сейчас не показуют по телику.
[Профиль]  [ЛС] 

megamastor ®

2827

Пост 21-Июн-2012 10:57 (спустя 9 дней)

[Q] 

Nitro, показывают, но редко... bk
[Профиль]  [ЛС] 

Zaraza

Штурман

Пост 30-Окт-2012 15:30 (спустя 4 месяца 9 дней)

[Q] 

Спасибо огромное! отличный фильм.
А у вас нет случайно фильма "нервы.нервы" 1972 г.выпуска? Тоже отличная советская комедия,только найти никак не могу.
[Профиль]  [ЛС] 

LORD OR

Корсар

Пост 12-Ноя-2012 21:41 (спустя 13 дней)

[Q] 

Непревзойденный Георгий Вицин!!! Великолепный фильм!!!
[Профиль]  [ЛС] 

ZaKKeR

Штурман

Пост 06-Ноя-2014 01:08 (спустя 1 год 11 месяцев)

[Q] 

Лови бочку Супер!
[Профиль]  [ЛС] 

admbook

Боцман

Пост 06-Ноя-2014 06:15 (спустя 5 часов)

[Q] 

http://СПАМ.org/forum/viewtopic.php?t=4855402
нервы.нервы
[Профиль]  [ЛС] 
Показать сообщения:    
Ответить на тему

Текущее время: Сегодня 22:32

Часовой пояс: GMT + 4



Вы не можете начинать темы
Вы не можете отвечать на сообщения
Вы не можете редактировать свои сообщения
Вы не можете удалять свои сообщения
Вы не можете голосовать в опросах
Вы не можете прикреплять файлы к сообщениям
Вы не можете скачивать файлы

▼ Вниз