ML
     
  Уважаемый Гость!
Вы можете поддержать проект и зарегистрироваться у наших партнеров - онлайн-стратегия MyLands. При регистрации в игре Вы получите код, который сможете активировать после регистрации на pirat.ca и получить 1000 дублонов.

Ваш код:
6f9ab67d502902cc72a06c406977ddb589b7f39d
 
     

По улицам комод водили... (Марк Генин, Николай Ковальский) [1978 г., Киноальманах/Комедия, DVDRip]

Ответить на тему
 
Автор
Сообщение

Пост 05-Июн-2012 19:08

[Q] 

megamastor

По улицам комод водили...
Год выпуска: 1978
Дата выхода DVD: 20 августа 2009
Производство: Одесская киностудия
Жанр: Киноальманах/Комедия
Продолжительность: 01:03:58
Режиссер: Марк Генин, Николай Ковальский
В ролях
Виктор Мягкий, Вячеслав Тихонов, Александр Демьяненко, Игорь Дмитриев, Михаил Кокшенов , Леонид Куравлев, Семен Морозов, Валерий Носик, Валентина Талызина, Наталья Вавилова, Валентина Титова, Владимир Этуш, Наталья Селезнева, Игорь Ясулович, Евгений Весник, Владимир Басов, Роман Ткачук, Роман Филиппов, Владимир Ивашов, Василий Векшин.
Описание
Киноальманах состоит из новелл-шуток: "Грабеж среди бела дня" - о покупателе, доверившем обкатку своего новенького велосипеда ребенку; "С новинкой!" - о новом директоре большого гастронома, выясняющем у следователя меру наказаний за предполагаемое воровство; "На волоске" - о пожилом пассажире пригородного поезда, размечтавшемся о встречах с девушкой, которая под напором его взгляда решила уступить старичку место; "Экзамен" - о бывших коллегах-футболистах, выстраивающих свою карьеру за счет спортивных успехов; "Мы едем, едем, едем..." - о легкомысленной девушке, часто меняющей своих женихов; "Вредная работа" - о враче-взяточнике; "Овчарка Барсик" - о том, как кот Барсик получил медаль на собачьей выставке; "Урок" - о начальнике, который учился бюрократизму; "Комод" - о комоде, в котором можно спрятаться двоим, чтобы не платить за проезд.
Источник/Качество: DVDRip
Формат: AVI
Видео кодек: DivX
Аудио кодек: AC3
Видео: 720x528 (1.36:1), 25 fps, DivX Codec 5.2.1 alpha ~1799 kbps avg
Аудио: 48 kHz, AC3 Dolby Digital, 3/2 (L,C,R,l,r) + LFE ch, ~384.00 kbps avg
Общее
Формат : AVI
Формат/Информация : Audio Video Interleave
Размер файла : 1004 Мбайт
Продолжительность : 1 ч. 3 м.
Общий поток : 2194 Кбит/сек
Библиотека кодирования : VirtualDub build 27021/release
Видео
Идентификатор : 0
Формат : MPEG-4 Visual
Параметр BVOP формата : 1
Параметр QPel формата : Нет
Параметр GMC формата : Без точки перехода
Параметр матрицы формата : Default (H.263)
Режим смешивания : Сжатый битовый поток
Идентификатор кодека : DX50
Идентификатор кодека/Подсказка : DivX 5
Продолжительность : 1 ч. 3 м.
Битрейт : 1800 Кбит/сек
Ширина : 720 пикселей
Высота : 528 пикселей
Соотношение сторон : 4:3
Частота кадров : 25,000 кадров/сек
Цветовое пространство : YUV
Субдискретизация насыщенности : 4:2:0
Битовая глубина : 8 бит
Тип развёртки : Прогрессивная
Метод сжатия : С потерями
Бит/(Пиксели*Кадры) : 0.189
Размер потока : 824 Мбайт (82%)
Библиотека кодирования : DivX 5.2.1 Alpha (UTC 2004-09-08)
Аудио
Идентификатор : 1
Формат : AC-3
Формат/Информация : Audio Coding 3
Расширение режима : CM (complete main)
Идентификатор кодека : 2000
Продолжительность : 1 ч. 3 м.
Вид битрейта : Постоянный
Битрейт : 384 Кбит/сек
Каналы : 6 каналов
Расположение каналов : Front: L C R, Side: L R, LFE
Частота : 48,0 КГц
Битовая глубина : 16 бит
Метод сжатия : С потерями
Размер потока : 176 Мбайт (18%)
Выравнивание : Соединение по промежуткам
Продолжительность промежутка : 40 мс. (1,00 видеокадр)
Время предзагрузки промежутка : 512 мс.
Download / Скачать

Хотите скачать бесплатно? Зарегистрируйтесь на сайте (ссылка на регистрацию). Pirat.ca - самый быстрый торрент трекер в рунете!

Как скачивать  ·   Что такое торрент  ·   Рейтинг и ограничения

Пост 05-Июн-2012 19:09 (спустя 1 минута)

Топик был перенесен из форума Наше Кино в форум Советское кино

Linnan
 

nadabibak

Гроза морей

Пост 05-Июн-2012 21:21 (спустя 2 часа 13 минут)

[Q] 

Старое доброе Советское кино. Современным фильмам таким бы быть.
[Профиль]  [ЛС] 

miner804

Морской Волк

Пост 14-Июл-2012 20:04 (спустя 1 месяц 8 дней)

[Q] 

Смотреть...
[Профиль]  [ЛС] 
Показать сообщения:    
Ответить на тему

Текущее время: Сегодня 16:27

Часовой пояс: GMT + 4



Вы не можете начинать темы
Вы не можете отвечать на сообщения
Вы не можете редактировать свои сообщения
Вы не можете удалять свои сообщения
Вы не можете голосовать в опросах
Вы не можете прикреплять файлы к сообщениям
Вы не можете скачивать файлы

▼ Вниз