ML
     
  Уважаемый Гость!
Вы можете поддержать проект и зарегистрироваться у наших партнеров - онлайн-стратегия MyLands. При регистрации в игре Вы получите код, который сможете активировать после регистрации на pirat.ca и получить 1000 дублонов.

Ваш код:
ea554e7ed3eacceeae87a8b30a9de3f086c18a84
 
     

Тайна двух океанов (Константин Пипинашвили) [1956 г., фантастика, DVDRip-AVC](2 серии из 2-х)

Ответить на тему
 
Автор
Сообщение

Пост 11-Июн-2012 13:42

[Q] 

megamastor

Тайна двух океанов
Год выпуска: 1956
Российская премьера: 20 марта 1957
Производство: "Грузия Фильм"
Жанр: фантастика
Продолжительность: 02:24:43
Режиссер: Константин Пипинашвили
В ролях
Сергей Столяров, Игорь Владимиров, Сергей Голованов, Петр Соболевский, Антонина Максимова, Михаил Глузский, Павел Луспекаев, Сергей Комаров, Игорь Бристоль, Леонид Пирогов, Вахтанг Нинуа
Описание
В послевоенные годы в Атлантическом океане при загадочных обстоятельствах погибает советский теплоход "Арктика". Одновременно в Тихом океане взрывается французский теплоход "Виктуар". Советскому экипажу хорошо оснащенной подводной лодки "Пионер" предстоит выяснить причину гибели двух теплоходов...
КиноПоиск
Источник/Качество: DVDRip-AVC
Формат: MKV
Видео кодек: MPEG2
Аудио кодек: AC3
Видео: MPEG-4 AVC, 2003 Кбит/с, 747х560
Аудио: AC3, 2 ch, 192 Кбит/с
Диплом жюри "За высокую технику производства и разработку научно-фантастического сюжета" на международном кинофестивале в Дамаске в 1956 году.
Общее
Уникальный идентификатор : 161479417522117069551780313436700577768 (0x797BCDF7B26AE86EB6525E15E65C8FE8)
Формат : Matroska
Версия формата : Version 2
Размер файла : 2,15 Гбайт
Продолжительность : 2 ч. 19 м.
Общий поток : 2200 Кбит/сек
Программа кодирования : HandBrake 0.9.5
Библиотека кодирования : libmkv 0.6.4.1
Видео
Идентификатор : 1
Формат : AVC
Формат/Информация : Advanced Video Codec
Профиль формата : [email protected]
Параметр CABAC формата : Да
Параметр ReFrames формата : 4 кадра
Идентификатор кодека : V_MPEG4/ISO/AVC
Продолжительность : 2 ч. 19 м.
Битрейт : 2003 Кбит/сек
Ширина : 747 пикселей
Высота : 560 пикселей
Соотношение сторон : 4:3
Режим частоты кадров : Переменный
Частота кадров : 25,000 кадров/сек
Цветовое пространство : YUV
Субдискретизация насыщенности : 4:2:0
Битовая глубина : 8 бит
Тип развёртки : Прогрессивная
Бит/(Пиксели*Кадры) : 0.208
Размер потока : 1,92 Гбайт (89%)
Библиотека кодирования : x264 core 112
Настройки программы : cabac=1 / ref=2 / deblock=1:0:0 / analyse=0x1:0x111 / me=hex / subme=6 / psy=1 / psy_rd=1.00:0.00 / mixed_ref=0 / me_range=16 / chroma_me=1 / trellis=0 / 8x8dct=0 / cqm=0 / deadzone=21,11 / fast_pskip=1 / chroma_qp_offset=-2 / threads=6 / sliced_threads=0 / nr=0 / decimate=1 / interlaced=0 / constrained_intra=0 / bframes=2 / b_pyramid=2 / b_adapt=1 / b_bias=0 / direct=1 / weightb=0 / open_gop=0 / weightp=2 / keyint=250 / keyint_min=25 / scenecut=40 / intra_refresh=0 / rc_lookahead=40 / rc=2pass / mbtree=1 / bitrate=2003 / ratetol=1.0 / qcomp=0.60 / qpmin=3 / qpmax=51 / qpstep=4 / cplxblur=20.0 / qblur=0.5 / ip_ratio=1.40 / aq=1:1.00
Язык : English
Default : Да
Forced : Нет
Основные цвета : BT.601-6 525, BT.1358 525, BT.1700 NTSC, SMPTE 170M
Характеристики трансфера : BT.709-5, BT.1361
Коэффициенты матрицы : BT.601-6 525, BT.1358 525, BT.1700 NTSC, SMPTE 170M
Аудио
Идентификатор : 2
Формат : AC-3
Формат/Информация : Audio Coding 3
Расширение режима : CM (complete main)
Идентификатор кодека : A_AC3
Продолжительность : 2 ч. 19 м.
Вид битрейта : Постоянный
Битрейт : 192 Кбит/сек
Каналы : 2 канала
Расположение каналов : Front: L R
Частота : 48,0 КГц
Битовая глубина : 16 бит
Метод сжатия : С потерями
Размер потока : 192 Мбайт (9%)
Default : Да
Forced : Нет
Меню
00:00:00.000 : Chapter 1
00:02:00.200 : Chapter 2
00:04:00.200 : Chapter 3
00:06:00.200 : Chapter 4
00:08:00.200 : Chapter 5
00:10:00.200 : Chapter 6
00:12:00.200 : Chapter 7
00:14:00.200 : Chapter 8
00:16:00.200 : Chapter 9
00:18:00.200 : Chapter 10
00:20:00.200 : Chapter 11
00:22:00.200 : Chapter 12
00:24:00.200 : Chapter 13
00:26:00.200 : Chapter 14
00:28:00.200 : Chapter 15
00:30:00.200 : Chapter 16
00:32:00.200 : Chapter 17
00:34:00.200 : Chapter 18
00:36:00.200 : Chapter 19
00:38:00.200 : Chapter 20
00:40:00.200 : Chapter 21
00:42:00.200 : Chapter 22
00:44:00.200 : Chapter 23
00:46:00.200 : Chapter 24
00:48:00.200 : Chapter 25
00:50:00.200 : Chapter 26
00:52:00.200 : Chapter 27
00:54:00.200 : Chapter 28
00:56:00.200 : Chapter 29
00:58:00.200 : Chapter 30
01:00:00.200 : Chapter 31
01:02:00.200 : Chapter 32
01:04:00.200 : Chapter 33
01:06:00.200 : Chapter 34
01:08:00.200 : Chapter 35
01:10:00.200 : Chapter 36
01:12:00.200 : Chapter 37
01:14:00.200 : Chapter 38
01:16:00.200 : Chapter 39
01:18:00.200 : Chapter 40
01:20:00.440 : Chapter 41
01:22:00.440 : Chapter 42
01:24:00.440 : Chapter 43
01:26:00.440 : Chapter 44
01:28:00.440 : Chapter 45
01:30:00.440 : Chapter 46
01:32:00.440 : Chapter 47
01:34:00.440 : Chapter 48
01:36:00.440 : Chapter 49
01:38:00.440 : Chapter 50
01:40:00.440 : Chapter 51
01:42:00.440 : Chapter 52
01:44:00.440 : Chapter 53
01:46:00.440 : Chapter 54
01:48:00.440 : Chapter 55
01:50:00.440 : Chapter 56
01:52:00.440 : Chapter 57
01:54:00.440 : Chapter 58
01:56:00.440 : Chapter 59
01:58:00.440 : Chapter 60
02:00:00.440 : Chapter 61
02:02:00.440 : Chapter 62
02:04:00.440 : Chapter 63
02:06:00.440 : Chapter 64
02:08:00.440 : Chapter 65
02:10:00.440 : Chapter 66
02:12:00.440 : Chapter 67
02:14:00.440 : Chapter 68
02:16:00.440 : Chapter 69
02:18:00.440 : Chapter 70
Первоначально фильм планировался односерийным. После показа комиссии Госкино было принято решение снимать вторую серию.
По мотивам одноименного романа Г. Адамова. Последняя работа в кино актера и режиссера Сергея Комарова. Лидер проката 1957 года (6 место) — 31,2 млн. зрителей.
Download / Скачать

Хотите скачать бесплатно? Зарегистрируйтесь на сайте (ссылка на регистрацию). Pirat.ca - самый быстрый торрент трекер в рунете!

Как скачивать  ·   Что такое торрент  ·   Рейтинг и ограничения



Последний раз редактировалось: megamastor (2012-06-11 14:16), всего редактировалось 3 раз(а)

Пост 11-Июн-2012 14:23 (спустя 41 минута)

Топик был перенесен из форума Наше Кино в форум Советское кино

Linnan
 

nadabibak

Гроза морей

Пост 11-Июн-2012 15:09 (спустя 1 час 27 минут)

[Q] 

Хорошее, доброе старое Советское кино.
[Профиль]  [ЛС] 

megamastor ®

2827

Пост 12-Июн-2012 22:39 (спустя 1 день 7 часов)

[Q] 

Хорошее, доброе старое Советское кино.
Это точно! ay
[Профиль]  [ЛС] 

balamutych 8

Шкипер

Пост 06-Июн-2016 23:30 (спустя 3 года 11 месяцев)

[Q] 

Спасибо большое
[Профиль]  [ЛС] 

tubuc

Корсар

103

Пост 21-Авг-2016 17:52 (спустя 2 месяца 14 дней)

[Q] 

Хороший фильм, для разнообразия Спасибо!!! стоит посмотреть
[Профиль]  [ЛС] 
Показать сообщения:    
Ответить на тему

Текущее время: Сегодня 12:11

Часовой пояс: GMT + 4



Вы не можете начинать темы
Вы не можете отвечать на сообщения
Вы не можете редактировать свои сообщения
Вы не можете удалять свои сообщения
Вы не можете голосовать в опросах
Вы не можете прикреплять файлы к сообщениям
Вы не можете скачивать файлы

▼ Вниз