ML
     
  Уважаемый Гость!
Вы можете поддержать проект и зарегистрироваться у наших партнеров - онлайн-стратегия MyLands. При регистрации в игре Вы получите код, который сможете активировать после регистрации на pirat.ca и получить 1000 дублонов.

Ваш код:
a261790f23fb05d13d060bdee9cb70d1451a6d3d
 
     

Однажды в Париже / Любовь по-французски / Московский Независимый театр (Наталья Леонова) [2010 г., спектакль, криминальная комедия, CamRip]

Ответить на тему
 
Автор
Сообщение

Пост 20-Янв-2013 15:28

[Q] 

erchine

-Однажды в Париже / Любовь по-французски-Московский Независимый театр-(по мотивам пьесы А.Кузьмина «Путаны»)
ПРЕМЬЕРА 26.12.2006
- Страна: Россия
Жанр: спектакль, криминальная комедия
Год выпуска: 2010 г.
Продолжительность: 01:44:08
Перевод: Не требуется
Режиссер: Наталья Леонова-В ролях:
Наташа - Татьяна Коновалова
Альбер - нар. арт. России Владимир Стеклов
Деде - Александр Головин/Андрей Панин
Кики - Мирослава Карпович
Жозеф - Валентин Мельник
Снежинка - Яна Кузнецова
Пауло - Сергей Поздняков
Бамбула - Виталий Крапива-Описание:
Цепь невероятных событий и нелепых ситуаций стремительно разворачиваются в доме добропорядочного французского пенсионера Альбера. Он думал, что спас обычную девушку от хулигана, но все оказалось гораздо сложнее, и ему приходится играть роль криминального авторитета, втянутого в детективную историю. И понеслось: на его голову сыплются невероятные приключения, нелепые убийства, и конечно же любовь.
Ему приходится общаться с бандитами, сутенерами, проститутками и при этом стараться быть человеком. Феерическая комедия, в которой смех будет главной составляющей частью.-Сэмпл
Качество видео: CamRip
Контейнер: AVI
Видео кодек: XviD
Аудио кодек: MP3
Видео: Xvid 720x400 25fps 1106 Kbps 0.154 bit/pixel
Аудио: MP3 44100Hz stereo 128kbps
Cубтитры: отсутствуют
General
Complete name : D:\Lubov.po.francuski.2011.CamRip.avi
Format : AVI
Format/Info : Audio Video Interleave
File size : 929 MiB
Duration : 1h 44mn
Overall bit rate mode : Variable
Overall bit rate : 1 247 Kbps
Movie name : Lubov.po.francuski.2011.CamRip
Writing application : VirtualDubMod 1.5.10.3 | www.virtualdub-fr.org || (build 2550/release)
Copyright : pirat.ca
Video
ID : 0
Format : MPEG-4 Visual
Format profile : Advanced [email protected]
Format settings, BVOP : 2
Format settings, QPel : No
Format settings, GMC : No warppoints
Format settings, Matrix : Default (MPEG)
Codec ID : XVID
Codec ID/Hint : XviD
Duration : 1h 44mn
Bit rate : 1 106 Kbps
Width : 720 pixels
Height : 400 pixels
Display aspect ratio : 16:9
Frame rate : 25.000 fps
Color space : YUV
Chroma subsampling : 4:2:0
Bit depth : 8 bits
Scan type : Progressive
Compression mode : Lossy
Bits/(Pixel*Frame) : 0.154
Stream size : 824 MiB (89%)
Writing library : XviD 65
Audio
ID : 1
Format : MPEG Audio
Format version : Version 1
Format profile : Layer 3
Mode : Joint stereo
Mode extension : MS Stereo
Codec ID : 55
Codec ID/Hint : MP3
Duration : 1h 44mn
Bit rate mode : Variable
Bit rate : 128 Kbps
Channel(s) : 2 channels
Sampling rate : 44.1 KHz
Compression mode : Lossy
Stream size : 95.3 MiB (10%)
Alignment : Aligned on interleaves
Interleave, duration : 26 ms (0.65 video frame)
Interleave, preload duration : 502 ms
Download / Скачать

Хотите скачать бесплатно? Зарегистрируйтесь на сайте (ссылка на регистрацию). Pirat.ca - самый быстрый торрент трекер в рунете!

Как скачивать  ·   Что такое торрент  ·   Рейтинг и ограничения



Последний раз редактировалось: erchine (2013-01-22 01:36), всего редактировалось 1 раз

AGKRus36

37905

Пост 20-Янв-2013 16:51 (спустя 1 час 23 минуты)

[Q] 


_________________
Мои раздачи
[Профиль]  [ЛС] 

Дядя Витя

53911

Пост 20-Янв-2013 17:12 (спустя 20 минут)

[Q] 


_________________
?
[Профиль]  [ЛС] 

ник ример

Морской Волк

Пост 26-Окт-2015 02:20 (спустя 2 года 9 месяцев)

[Q] 

интересно будет глянуть...
ДАЙТЕ СКАЧАТЬ плиз!!! Эй, вернитесь на раздачу...
[Профиль]  [ЛС] 
Показать сообщения:    
Ответить на тему

Текущее время: Сегодня 20:04

Часовой пояс: GMT + 4



Вы не можете начинать темы
Вы не можете отвечать на сообщения
Вы не можете редактировать свои сообщения
Вы не можете удалять свои сообщения
Вы не можете голосовать в опросах
Вы не можете прикреплять файлы к сообщениям
Вы не можете скачивать файлы

▼ Вниз