ML
     
  Уважаемый Гость!
Вы можете поддержать проект и зарегистрироваться у наших партнеров - онлайн-стратегия MyLands. При регистрации в игре Вы получите код, который сможете активировать после регистрации на pirat.ca и получить 1000 дублонов.

Ваш код:
b70663c760e7cd2521b8e123786cdd788200e3bd
 
     

Плюс один (+1) (Евгений Гришковец) [2013 г., Моноспектакль, WEB-DL]

Ответить на тему
 
Автор
Сообщение

Пост 05-Апр-2013 21:48

[Q] 

Gweg

-Плюс один (+1)-- Страна: Россия
Жанр: Моноспектакль
Год выпуска: 2013 г.
Продолжительность: 02:19:34
Перевод: Не требуется
Cубтитры: отсутствуют
Режиссер: Евгений Гришковец-В ролях: Евгений Гришковец-Описание: Над спектаклем «Плюс один» Евгений Гришковец работал более 3х лет. Примерно пол года назад в свет вышел фильм с одноименным названием "+1", но, несмотря на это Евгений Гришковец заявил, что никакой связи между фильмом и спектаклем нет. Но и название к своему спектаклю Гришковец менять не захотел, объяснив это тем, что название «Плюс один» неразрывно связано с содержанием спектакля. Тем более что название было придумано задолго до появления фильма «Плюс один», но знали о нем всего несколько человек.
В современной культуре общения "+1" является довольно распространенным выражением. В основном его используют при общении на форумах в интернет, в онлайн дневниках т.д. Кстати, Евгений Гришковец и сам является автором такого дневника. +1 означает согласие с мнением ранее высказавшегося человека, а вот в спектакле речь пойдет вовсе не о виртуальном, а о вполне реальном общении.
Декорации на сцене представляют собой кусочек квартиры, в которой есть торшер, стол, какая-то мебель, окно, в котором можно увидеть обычный уличный пейзаж, с проезжающими мимо машинами. Но помимо привычной обстановки, на сцене есть ещё и Крайний Север и Марс и даже Рай. В спектакле "+1" Евгений Гришковец предстает перед нами в совершенно разных образах, и в амуниции полярника и в космическом скафандре и даже в качестве обитателя райских кущ, но при этом, он все же остается самим собой, все таким же наблюдательным, внимательным и ироничным к своему весьма богатому внутреннему миру.
Начинается спектакль с фразы «Меня никто не знает», и стоит заметить, что это не просто лукавство. Ведь действительно, Евгения Гришковца знают очень многие, но никто из них, и даже самые близкие не знаю самых сокровенных чувств и мыслей. Следом возникает вопрос, а нужно ли это, что бы все окружающие постоянно знали, о чем же думает человек? Гришковец подробно рассматривает темы одиночества и счастья. Он также рассказывает о желании недостижимой всеобщей любви и о том какие подвиги нужно совершить, что бы хоть немножко её получить. Возможно, "+1" — самый исповедальный монолог Евгения Гришковца.-Качество видео: WEB-DL
Контейнер: MP4
Видео кодек: FMP4
Аудио кодек: AC-3
Видео: 480x272 (16:9), 767 kbps, 25 fps 0.235 bit/pixel
Аудио: 44,1 kHz, 128.00 kbps, 2 ch AC-3
Формат : AVI
Формат/Информация : Audio Video Interleave
Размер файла : 904 Мбайт
Продолжительность : 2 ч. 19 м.
Общий поток : 906 Кбит/сек
Программа кодирования : Lavf54.6.100
Видео
Идентификатор : 0
Формат : MPEG-4 Visual
Профиль формата : [email protected]
Параметр BVOP формата : Нет
Параметр QPel формата : Нет
Параметр GMC формата : Без точки перехода
Параметр матрицы формата : Default (H.263)
Идентификатор кодека : FMP4
Продолжительность : 2 ч. 19 м.
Битрейт : 767 Кбит/сек
Ширина : 480 пикселей
Высота : 272 пикселя
Соотношение сторон : 16:9
Частота кадров : 25,000 кадров/сек
Цветовое пространство : YUV
Субдискретизация насыщенности : 4:2:0
Битовая глубина : 8 бит
Тип развёртки : Прогрессивная
Метод сжатия : С потерями
Бит/(Пиксели*Кадры) : 0.235
Размер потока : 766 Мбайт (85%)
Библиотека кодирования : Lavc54.23.100
Аудио
Идентификатор : 1
Формат : AC-3
Формат/Информация : Audio Coding 3
Расширение режима : CM (complete main)
Параметр Endianness формата : Big
Идентификатор кодека : 2000
Продолжительность : 2 ч. 19 м.
Вид битрейта : Постоянный
Битрейт : 128 Кбит/сек
Каналы : 2 канала
Расположение каналов : Front: L R
Частота : 44,1 КГц
Битовая глубина : 16 бит
Метод сжатия : С потерями
Размер потока : 128 Мбайт (14%)
Выравнивание : Соединение по промежуткам
Продолжительность промежутка : 35 мс. (0,87 видеокадр)
-- --
Download / Скачать

Хотите скачать бесплатно? Зарегистрируйтесь на сайте (ссылка на регистрацию). Pirat.ca - самый быстрый торрент трекер в рунете!

Как скачивать  ·   Что такое торрент  ·   Рейтинг и ограничения

Пост 05-Апр-2013 22:03 (спустя 15 минут)

Топик был перенесен из форума Театр (Трюм) в форум Спектакли и театральные постановки

erchine
 

Alexe10

Гроза морей

36

Пост 06-Апр-2013 05:36 (спустя 7 часов)

[Q] 

[Профиль]  [ЛС] 

krendel1973

Флибустьер

Пост 06-Апр-2013 09:39 (спустя 4 часа)

[Q] 

[Профиль]  [ЛС] 

DellFlyer

Флибустьер

165

Пост 09-Апр-2013 01:29 (спустя 2 дня 15 часов)

[Q] 

Огромное спасибо за раздачу! Спектакль очень понравился. Когда-то был фанатом Гришковца, но он утих на некоторое время, продолжая писать книги. И вот наконец-то что-то свеженькое сделал! Класс!!! Постарел он конечно, но это всё жизненное... А вот философом нашего времени его называют не зря! Молодец мужик, держит марку. Ну, в общем, кто знает Гришковца, тот поймёт о чём я.
[Профиль]  [ЛС] 

immortal_ul

Штурман

Пост 03-Июн-2013 20:09 (спустя 1 месяц 24 дня)

[Q] 

[Профиль]  [ЛС] 

andmed

Лоцман

Пост 27-Июн-2013 08:09 (спустя 23 дня)

[Q] 

[Профиль]  [ЛС] 

chell

Штурман

Пост 12-Дек-2013 23:26 (спустя 5 месяцев 15 дней)

[Q] 

Автору респект!!! Пиратка рулит! На конец то на что то достойное наткнулся в груде информационного мусора!
[Профиль]  [ЛС] 

yasheroff

Морской Волк

87

Пост 12-Апр-2014 00:42 (спустя 3 месяца 30 дней)

[Q] 

Спасибо! Рад, что наткнулся!
[Профиль]  [ЛС] 

IgorWOO

Корсар

Пост 28-Сен-2014 18:05 (спустя 5 месяцев 16 дней)

[Q] 

Спасибо, очень интересно)
[Профиль]  [ЛС] 

zdimir

Морской Волк

Пост 04-Ноя-2014 11:34 (спустя 1 месяц 5 дней)

[Q] 

Самый его лучший спектакль!
[Профиль]  [ЛС] 
Показать сообщения:    
Ответить на тему

Текущее время: Сегодня 00:24

Часовой пояс: GMT + 4



Вы не можете начинать темы
Вы не можете отвечать на сообщения
Вы не можете редактировать свои сообщения
Вы не можете удалять свои сообщения
Вы не можете голосовать в опросах
Вы не можете прикреплять файлы к сообщениям
Вы не можете скачивать файлы

▼ Вниз