ML
     
  Уважаемый Гость!
Вы можете поддержать проект и зарегистрироваться у наших партнеров - онлайн-стратегия MyLands. При регистрации в игре Вы получите код, который сможете активировать после регистрации на pirat.ca и получить 1000 дублонов.

Ваш код:
ee1288b6f7c09d9d2cb2a0f972aba30460ce9333
 
     

Ханума (Георгий Товстоногов) [1978 г., спектакль, мюзикл, комедия, DVDRip-AVC] [Jolly Roger]

Ответить на тему
 
Автор
Сообщение

Пост 30-Сен-2013 19:35

[Q] 

erchine

-Ханума- Год выпуска: 1978 г.
Производство: СССР
Жанр: мюзикл, комедия
Продолжительность: 02:19:12
Перевод: Не требуется
Режиссер: Георгий Товстоногов
В ролях: Людмила Макарова, Вадим Медведев, Владислав Стржельчик, Валентина Ковель, Николай Трофимов, Всеволод Кузнецов, Мария Призван-Соколова, Елена Алексеева, Геннадий Богачёв, Марина Адашевская, Леонид Неведомский, Георгий Штиль, Анатолий Гаричев, Валерий Караваев, Владимир Козлов, Юзеф Мироненко, Иван Пальму, Евгений Соляков, Людмила Сапожникова, Евгений Чудаков
Описание: Экранизация пьесы А.Цагарели "Ханума". Спектакль Академического Большого Драматического театра им. М.Горького. 2-е части. В 1978 году, на пике популярности «Ханумы», состоялась запись телеверсии, благодаря чему представлением можно наслаждаться по сей день.
Веселая история о никогда не унывающей и предприимчивой свахе Хануме.
Тбилиси. Начало XX века. Князь Пантиашвили прокрутил всё своё состояние. Выход один - срочно жениться на богатой девушке. За дело берется сваха Ханума...
Качество видео: DVDRip-AVC
Контейнер: MKV
Видео кодек: H.264
Аудио кодек: AC3
Видео: MPEG4 Video (H264) 752x560 25fps 1787 Kbps
Аудио: Dolby AC3 48000Hz 6ch 448 Kbps
General
Unique ID : 249822452715555706916536552669588914442 (0xBBF20DE319812966B239B9DF5432810A)
Complete name : D:\Hanuma.1978.H.264.DVDRip-AVC.JRG.mkv
Format : Matroska
Format version : Version 4 / Version 2
File size : 2.17 GiB
Duration : 2h 19mn
Overall bit rate : 2 236 Kbps
Movie name : The Jolly Roger Release Group by Pirat.CA
Encoded date : UTC 2013-09-30 15:15:42
Writing application : mkvmerge v6.3.0 ('You can't stop me!') built on Jun 28 2013 20:09:41
Writing library : libebml v1.3.0 + libmatroska v1.4.0
Video
ID : 1
Format : AVC
Format/Info : Advanced Video Codec
Format profile : [email protected]
Format settings, CABAC : Yes
Format settings, ReFrames : 7 frames
Codec ID : V_MPEG4/ISO/AVC
Duration : 2h 19mn
Bit rate : 1 787 Kbps
Width : 752 pixels
Height : 560 pixels
Display aspect ratio : 4:3
Frame rate mode : Constant
Frame rate : 25.000 fps
Color space : YUV
Chroma subsampling : 4:2:0
Bit depth : 8 bits
Scan type : Progressive
Bits/(Pixel*Frame) : 0.170
Stream size : 1.70 GiB (78%)
Writing library : x264 core 130 r2273 b3065e6
Encoding settings : cabac=1 / ref=7 / deblock=1:-1:-1 / analyse=0x3:0x133 / me=umh / subme=9 / psy=1 / psy_rd=1.00:0.15 / mixed_ref=1 / me_range=24 / chroma_me=1 / trellis=2 / 8x8dct=1 / cqm=0 / deadzone=21,11 / fast_pskip=0 / chroma_qp_offset=-3 / threads=3 / lookahead_threads=1 / sliced_threads=0 / nr=0 / decimate=1 / interlaced=0 / bluray_compat=0 / constrained_intra=0 / bframes=6 / b_pyramid=2 / b_adapt=2 / b_bias=0 / direct=3 / weightb=1 / open_gop=0 / weightp=2 / keyint=250 / keyint_min=25 / scenecut=40 / intra_refresh=0 / rc_lookahead=50 / rc=2pass / mbtree=1 / bitrate=1787 / ratetol=1.0 / qcomp=0.60 / qpmin=0 / qpmax=69 / qpstep=4 / cplxblur=20.0 / qblur=0.5 / ip_ratio=1.40 / aq=1:1.00
Default : Yes
Forced : No
Audio
ID : 2
Format : AC-3
Format/Info : Audio Coding 3
Mode extension : CM (complete main)
Format settings, Endianness : Big
Codec ID : A_AC3
Duration : 2h 19mn
Bit rate mode : Constant
Bit rate : 448 Kbps
Channel(s) : 6 channels
Channel positions : Front: L C R, Side: L R, LFE
Sampling rate : 48.0 KHz
Bit depth : 16 bits
Compression mode : Lossy
Delay relative to video : 4s 161ms
Stream size : 446 MiB (20%)
Default : Yes
Forced : No

Download / Скачать

Хотите скачать бесплатно? Зарегистрируйтесь на сайте (ссылка на регистрацию). Pirat.ca - самый быстрый торрент трекер в рунете!

Как скачивать  ·   Что такое торрент  ·   Рейтинг и ограничения

survol

Юнга

Пост 10-Мар-2014 16:21 (спустя 5 месяцев 9 дней)

[Q] 

Когда-то смотрел, очень понравилось, надо будет пересмотреть.
[Профиль]  [ЛС] 

Гатар

Морской Волк

130

Пост 24-Май-2014 07:00 (спустя 2 месяца 13 дней)

[Q] 

Спасибо!!! Шедевр, обязательно помогу с раздачей.
[Профиль]  [ЛС] 
Показать сообщения:    
Ответить на тему

Текущее время: Сегодня 18:18

Часовой пояс: GMT + 4



Вы не можете начинать темы
Вы не можете отвечать на сообщения
Вы не можете редактировать свои сообщения
Вы не можете удалять свои сообщения
Вы не можете голосовать в опросах
Вы не можете прикреплять файлы к сообщениям
Вы не можете скачивать файлы

▼ Вниз