ML
     
  Уважаемый Гость!
Вы можете поддержать проект и зарегистрироваться у наших партнеров - онлайн-стратегия MyLands. При регистрации в игре Вы получите код, который сможете активировать после регистрации на pirat.ca и получить 1000 дублонов.

Ваш код:
ca44e9295b9b8527ba1c339c20494f70782efea6
 
     

Евгений Гришковец - Дредноуты (2007) (Евгений Гришковец) [2007 г., Спектакль, DVDRip]

Ответить на тему
 
Автор
Сообщение

Пост 26-Апр-2014 17:18

[Q] 

yasheroff

Морской Волк

-Евгений Гришковец - Дредноуты (2007)- Страна: Россия
Жанр: Спектакль
Год выпуска: 2007 г.
Продолжительность: 01:59:42
Режиссер: Евгений Гришковец-В ролях: Евгений Гришковец-Описание: "Дредноуты" - это спектакль о самых больших военных кораблях, о событиях Первой мировой, о грандиозной Ютландской битве. Евгений Гришковец рассказывает историю битвы, как мальчик излагает друзьям увлекательную сказку о больших кораблях и морских боях. Гришковец дробит большую историю на крошечные осколки человеческих судеб. Гришковец соединяет в спектакле короткие эпизоды сражений. Причем только те из них, в которых запечатлелась история людского благородства.
Спектакль "Дредноуты" имеет подзаголовок "спектакль для женщин". Так вот это - провокация. Гришковца поразило следующее обстоятельство: женщины никогда не читают книг о военных коряблях и грандиозных битвах, они их даже в руки не берут. Несмотря на то, что как раз в этих книгах так много важного сказано о мужчинах - их мечтах, разочарованиях, амбициях, надеждах, отваге, сентиментальности и верности долгу. То есть о том, о чем в книгах по психологии не прочтешь.
На самом деле те вещи, о которых говорит Гришковец, - некоторые диковинные примеры соблюдения правил чести, воинской доблести, мужества и даже самоотверженности - сейчас неоднозначно воспринимаются не только женщинами, но и современными мужчинами. И вовсе не потому, что все эти качества им не присущи, просто не востребованы.
Кроме того, в спектакле прозвучат композиции таких исполнителей, как Philip Glass ("Decorating the Dummies"), Cesaria Evora ("Sodade") и Elvis Presley ("Can't help falling in love").
От Ozon.ru:
Во всем, где только успел попробовать себя Евгений Гришковец, его ждал абсолютный успех. Театральные пьесы и постановки, музыкальный проект с группой БИГУДИ, книги - любое его новое начинание - событие просто по умолчанию. Феномен Гришковца, ставшего "сюрпризом театрального искусства", критики разгадывают до сих пор. Жанр, в котором он работает, называют просто - "гришковец": определить то, что происходит на сцене как-то по-другому невозможно: настолько это необычно, не похоже ни на что. Он знает волшебное слово - точнее, у него все слова волшебные. Колдовство это совершенно особого рода: Гришковец рассказывает о своем детстве (юности, военной службе, зрелости - и так далее), а зритель, будь он хоть негром преклонных годов, думает, что это все о нем. Эффект не объяснишь только тем, что постсовковую публику цепляют советские архетипы (пионерское детство, дембельский альбом и т.д.). Гришковец идет нарасхват и за рубежом: западный зритель тоже считывает из его спектаклей что-то свое. В этом смысле Евгений Гришковец уникален-Качество видео: DVDRip
Контейнер: AVI
Видео кодек: H.264
Аудио кодек: MP3
Видео: 640x480 (1.33:1), 25 fps, ~676 kbps avg
Аудио: 48 kHz, MPEG Layer 3, 2 ch, ~128.00 kbps avg
Видео
Идентификатор : 0
Формат : AVC
Формат/Информация : Advanced Video Codec
Профиль формата : [email protected]
Параметр CABAC формата : Да
Параметр ReFrames формата : 2 кадра
Идентификатор кодека : H264
Продолжительность : 1 ч. 59 м.
Битрейт : 677 Кбит/сек
Ширина : 640 пикселей
Высота : 480 пикселей
Соотношение сторон : 4:3
Частота кадров : 25,000 кадров/сек
Цветовое пространство : YUV
Субдискретизация насыщенности : 4:2:0
Битовая глубина : 8 бит
Тип развёртки : Прогрессивная
Бит/(Пиксели*Кадры) : 0.088
Размер потока : 580 Мбайт (83%)
Библиотека кодирования : x264 core 44 svn-408M
Настройки программы : cabac=1 / ref=1 / deblock=1:0:0 / analyse=0x1:0x131 / me=hex / subme=5 / brdo=0 / mixed_ref=0 / me_range=16 / chroma_me=1 / trellis=0 / 8x8dct=0 / cqm=0 / chroma_qp_offset=0 / slices=1 / bframes=2 / b_pyramid=0 / b_adapt=1 / b_bias=0 / direct=2 / wpredb=1 / bime=0 / keyint=250 / keyint_min=25 / scenecut=40 / pass=2 / bitrate=677 / ratetol=1.0 / rceq='blurCplx^(1-qComp)' / qcomp=0.60 / qpmin=10 / qpmax=51 / qpstep=4 / cplxblur=20.0 / qblur=0.5 / ip_ratio=1.40 / pb_ratio=1.30
Аудио
Идентификатор : 1
Формат : MPEG Audio
Версия формата : Version 1
Профиль формата : Layer 3
Режим : Joint stereo
Расширение режима : MS Stereo
Идентификатор кодека : 55
Идентификатор кодека/Подсказка : MP3
Продолжительность : 1 ч. 59 м.
Вид битрейта : Постоянный
Битрейт : 128 Кбит/сек
Каналы : 2 канала
Частота : 48,0 КГц
Метод сжатия : С потерями
Размер потока : 110 Мбайт (16%)
Выравнивание : Разделение по промежуткам
Продолжительность промежутка : 40 мс. (1,00 видеокадр)
Время предзагрузки промежутка : 500 мс.
Download / Скачать

Хотите скачать бесплатно? Зарегистрируйтесь на сайте (ссылка на регистрацию). Pirat.ca - самый быстрый торрент трекер в рунете!

Как скачивать  ·   Что такое торрент  ·   Рейтинг и ограничения



Последний раз редактировалось: yasheroff (2014-04-27 00:01), всего редактировалось 1 раз

Пост 27-Апр-2014 20:17 (спустя 1 день 2 часа)

Топик был перенесен из форума Театр (Трюм) в форум Спектакли и театральные постановки
erchine
 

Гатар

Морской Волк

130

Пост 29-Май-2014 11:34 (спустя 1 месяц 2 дня)

[Q] 

Скачаю помогу с раздачей.
[Профиль]  [ЛС] 

Alex-pee

Юнга

Пост 31-Дек-2014 11:57 (спустя 7 месяцев 2 дня)

[Q] 

Стоит посмотреть. Иронично, исторично, есть о чем задуматься.
[Профиль]  [ЛС] 
Показать сообщения:    
Ответить на тему

Текущее время: Сегодня 16:10

Часовой пояс: GMT + 4



Вы не можете начинать темы
Вы не можете отвечать на сообщения
Вы не можете редактировать свои сообщения
Вы не можете удалять свои сообщения
Вы не можете голосовать в опросах
Вы не можете прикреплять файлы к сообщениям
Вы не можете скачивать файлы

▼ Вниз