ML
     
  Уважаемый Гость!
Вы можете поддержать проект и зарегистрироваться у наших партнеров - онлайн-стратегия MyLands. При регистрации в игре Вы получите код, который сможете активировать после регистрации на pirat.ca и получить 1000 дублонов.

Ваш код:
34514219cfad5497a1822ecc1269bea77988f9aa
 
     

Евгений Гришковец - Планета (2005) (Евгений Гришковец) [Спектакль, DVDRip]

Ответить на тему
 
Автор
Сообщение

Пост 27-Апр-2014 20:13

[Q] 

yasheroff

Морской Волк

-Е. Гришковец - Планета (2005)-- Страна: Россия
Жанр: Спектакль
Год выпуска: 2005 г.
Продолжительность: 01:57:18
Перевод: Отсутствует
Оригинальный аудиопоток: русский
Cубтитры: отсутствуют
Режиссер: Е. Гришковец-В ролях: Е. Гришковец, А.Дубровская-Описание: Планета под названием Евгений Гришковец занимает совершенно отдельное место в нашей театральной солнечной системе. Пожалуй, это планета наиболее приближенная к солнцу — его странные м пространные монологи светлы, печальны, и, несмотря на явные приметы сегодняшнего дня, существуют вне времени и пространства. Гришковец не стесняется говорить о вещах глубоко интимных и сентиментальных — одним из важнейших тайн театра — искусством публичного одиночества он владеет в совершенстве. Гришковец весь состоит из противоречий — он не москвич, из Кемерова, но в нем нет ни капли провинциальности. По образованию он филолог, но тексты его лишены литературщины и фальшивого пафоса. Он никогда не работал в профессиональном театре, но актерские навыки выдают в нем абсолютного профессионала. Он невысок, некрасив и близорук — но обладает уникальным магнетическим обаянием, тем, что сводит с ума женщин. Он умеет превращать банальности в абсолютные откровения, владеет языком интимного дневника, того, что пишется не для сторонних глаз, и уж тем более не для публикации. Тексты его пестрят многоточиями, фразы обрываются внезапно, так дурацкие нелепые мысли лезут к нам в голову в минуты засыпания, лезут, толкаются, вырываясь из уставшей от дневной суеты головы. Это конечно, не драматургия, в ее традиционном понимании и попытка Гришковца предложить свои монологи для театра вряд ли увенчается успехом. Можно только попытаться сыграть Гришковца, который собственно и является главным и единственным персонажем этого театра. В спектакле "Планета" Гришковец выпервые обзавелся партнершей — это актриса вахтанговского театра Анна Дубровская. Партнершей в чистом виде ее не назовешь — прямого общения между героями не происходит, они существуют в параллельных мирах, слегка задевая друг друга плечами или дыханием. "Планета" — уже зрелище, а не только набор смыслов. В "Планете" есть элементы театральности — которые продолжают жить по своим законам уже в отсутствии слов. Планета похожа на светящийся глобус, что стоит настольной лампой в маленькой комнате обычной городской квартиры. И если приглядеться, то можно рассмотреть мосты и дороги, по которым движутся маленькие машинки с крошечными дворниками, капли дождя на лобовом стекле, можно услышать мелодию, которую насвистывает водитель, можно заглянуть в промелькнувшее мимо окно, прочесть название книжки, что читает незнакомая девушка с яблоком, можно даже услышать обрывок ее телефонного разговора и почувствовать запах ее духов… А чуть поднимешь голову — и вновь реки превращаются в голубые прожилки, леса в зеленые кляксы, многоэтажные дома в спичечные коробки, а люди и вовсе не попадут в поле зрения по причине своей малюсенькости. Мир Гришковца осязаем, он имеет и цвет, и вкус и запах, этот мир можно ощупывать руками и непременно найти, обнаружить в нем место для себя. Оно точно есть.-Качество видео: DVDRip
Контейнер: AVI
Видео кодек: H.264
Аудио кодек: MP3
Видео: Разрешение : 704x528 Кодек : DivX 5 Битрэйт : 693 Kbps
Аудио: Кодек : MP3 Битрэйт : 128 Kbps
Видео
Идентификатор : 0
Формат : MPEG-4 Visual
Параметр BVOP формата : 1
Параметр QPel формата : Нет
Параметр GMC формата : Без точки перехода
Параметр матрицы формата : Default (H.263)
Режим смешивания : Сжатый битовый поток
Идентификатор кодека : DX50
Идентификатор кодека/Подсказка : DivX 5
Продолжительность : 1 ч. 57 м.
Битрейт : 694 Кбит/сек
Ширина : 704 пикселя
Высота : 528 пикселей
Соотношение сторон : 4:3
Частота кадров : 25,000 кадров/сек
Цветовое пространство : YUV
Субдискретизация насыщенности : 4:2:0
Битовая глубина : 8 бит
Тип развёртки : Прогрессивная
Метод сжатия : С потерями
Бит/(Пиксели*Кадры) : 0.075
Размер потока : 582 Мбайт (83%)
Заголовок : Video
Библиотека кодирования : DivX 5.2.1 Alpha (UTC 2004-09-08)
Аудио
Идентификатор : 1
Формат : MPEG Audio
Версия формата : Version 1
Профиль формата : Layer 3
Идентификатор кодека : 55
Идентификатор кодека/Подсказка : MP3
Продолжительность : 1 ч. 57 м.
Вид битрейта : Постоянный
Битрейт : 128 Кбит/сек
Каналы : 2 канала
Частота : 44,1 КГц
Метод сжатия : С потерями
Размер потока : 107 Мбайт (15%)
Выравнивание : Разделение по промежуткам
Продолжительность промежутка : 40 мс. (1,00 видеокадр)
Время предзагрузки промежутка : 500 мс.
Заголовок : Audio
Download / Скачать

Хотите скачать бесплатно? Зарегистрируйтесь на сайте (ссылка на регистрацию). Pirat.ca - самый быстрый торрент трекер в рунете!

Как скачивать  ·   Что такое торрент  ·   Рейтинг и ограничения



Последний раз редактировалось: yasheroff (2014-04-27 22:15), всего редактировалось 1 раз

Амангельды

35486

Пост 27-Апр-2014 20:54 (спустя 41 минута)

[Q] 

Весьма тяжелый, но великолепный спектакль о любви...

_________________

Товарищ, верь, пройдет она,
Так называемая гласность.
И вот тогда госбезопасность
Припомнит ваши имена
Раздачи от Амангельды - ТЫНЦ
[Профиль]  [ЛС] 

ROSO

Шкипер

Пост 02-Май-2014 10:01 (спустя 4 дня)

[Q] 

Да, очень хороший спектакль.
[Профиль]  [ЛС] 

viktor41

Шкипер

Пост 02-Май-2014 11:47 (спустя 1 час 46 минут)

[Q] 

yasheroff, Спасибо ! Великолепный спектакль .... Автору респект!!! Всем качать!!!
[Профиль]  [ЛС] 

Гатар

Морской Волк

130

Пост 20-Май-2014 12:13 (спустя 18 дней)

[Q] 

Помогу с раздачей.
[Профиль]  [ЛС] 
Показать сообщения:    
Ответить на тему

Текущее время: Сегодня 07:55

Часовой пояс: GMT + 4



Вы не можете начинать темы
Вы не можете отвечать на сообщения
Вы не можете редактировать свои сообщения
Вы не можете удалять свои сообщения
Вы не можете голосовать в опросах
Вы не можете прикреплять файлы к сообщениям
Вы не можете скачивать файлы

▼ Вниз