ML
     
  Уважаемый Гость!
Вы можете поддержать проект и зарегистрироваться у наших партнеров - онлайн-стратегия MyLands. При регистрации в игре Вы получите код, который сможете активировать после регистрации на pirat.ca и получить 1000 дублонов.

Ваш код:
ca44e9295b9b8527ba1c339c20494f70782efea6
 
     

Евгений Гришковец - Как я съел собаку (2003) (Евгений Гришковец) [Спектакль, DVDRip]

Ответить на тему
 
Автор
Сообщение

Пост 27-Апр-2014 21:08

[Q] 

yasheroff

Морской Волк

-Евгений Гришковец - Как я съел собаку (2003)-- Страна: Россия
Жанр: Спектакль
Год выпуска: 2003 г.
Продолжительность: 02:08:10
Перевод: Не требуется
Оригинальный аудиопоток: русский
Cубтитры: отсутствуют
Режиссер: Евгений Гришковец-В ролях: Евгений Гришковец-Описание: Была жизнь до Гришковца - и есть жизнь с Гришковцом. Вернее было бы сказать, что пять лет назад вместе с Гришковцом - с его монологами и пьесами, где поровну слов и междометий и нет ни капли фальши, с его обаятельной манерой говорить, словно он с трудом подбирает слова - в театр пришла жизнь. Того спектакля он больше не играет - вместо него появились другие, с тех пор он съел собаку, подбирая самые точные слова для универсальных человеческих эмоций; по-существу, он научил театр говорить человеческим языком.-Качество видео: DVDRip
Контейнер: AVI
Видео кодек: DivX
Аудио кодек: MP3
Видео: 720x544 (1.32:1), 29.970 fps, DivX Codec 5.1.1 ~628 kbps avg, 0.05 bit/pixel
Аудио: 48 kHz, MPEG Layer 3, 2 ch, ~128.00 kbps avg
Видео
Идентификатор : 0
Формат : MPEG-4 Visual
Параметр BVOP формата : 1
Параметр QPel формата : Нет
Параметр GMC формата : Без точки перехода
Параметр матрицы формата : Default (H.263)
Режим смешивания : Сжатый битовый поток
Идентификатор кодека : DX50
Идентификатор кодека/Подсказка : DivX 5
Продолжительность : 2 ч. 8 м.
Битрейт : 628 Кбит/сек
Ширина : 720 пикселей
Высота : 544 пикселя
Соотношение сторон : 4:3
Частота кадров : 29,970 кадров/сек
Цветовое пространство : YUV
Субдискретизация насыщенности : 4:2:0
Битовая глубина : 8 бит
Тип развёртки : Прогрессивная
Метод сжатия : С потерями
Бит/(Пиксели*Кадры) : 0.053
Размер потока : 575 Мбайт (82%)
Библиотека кодирования : DivX 5.1.1 (Maupiti) (UTC 2003-11-19)
Аудио
Идентификатор : 1
Формат : MPEG Audio
Версия формата : Version 1
Профиль формата : Layer 3
Режим : Joint stereo
Расширение режима : MS Stereo
Идентификатор кодека : 55
Идентификатор кодека/Подсказка : MP3
Продолжительность : 2 ч. 8 м.
Вид битрейта : Постоянный
Битрейт : 128 Кбит/сек
Каналы : 2 канала
Частота : 48,0 КГц
Метод сжатия : С потерями
Размер потока : 117 Мбайт (17%)
Выравнивание : Соединение по промежуткам
Продолжительность промежутка : 67 мс. (2,00 видеокадра)
Время предзагрузки промежутка : 504 мс.
Язык : Russian
Download / Скачать

Хотите скачать бесплатно? Зарегистрируйтесь на сайте (ссылка на регистрацию). Pirat.ca - самый быстрый торрент трекер в рунете!

Как скачивать  ·   Что такое торрент  ·   Рейтинг и ограничения

Показать сообщения:    
Ответить на тему

Текущее время: Сегодня 16:16

Часовой пояс: GMT + 4



Вы не можете начинать темы
Вы не можете отвечать на сообщения
Вы не можете редактировать свои сообщения
Вы не можете удалять свои сообщения
Вы не можете голосовать в опросах
Вы не можете прикреплять файлы к сообщениям
Вы не можете скачивать файлы

▼ Вниз