ML
     
  Уважаемый Гость!
Вы можете поддержать проект и зарегистрироваться у наших партнеров - онлайн-стратегия MyLands. При регистрации в игре Вы получите код, который сможете активировать после регистрации на pirat.ca и получить 1000 дублонов.

Ваш код:
db0e0ad91548759ffeb9bb88bed405e1a4b3c165
 
     

Евгений Гришковец - Одновременно (2004) (Евгений Гришковец) [Спектакль, DVDRip]

Ответить на тему
 
Автор
Сообщение

Пост 27-Апр-2014 21:18

[Q] 

yasheroff

Морской Волк

-Евгений Гришковец - Одновременно (2004)-- Страна: Россия
Жанр: Спектакль
Год выпуска: 2004 г.
Продолжительность: 01:50:42
Перевод: Не требуется
Оригинальный аудиопоток: русский
Cубтитры: отсутствуют
Режиссер: Евгений Гришковец-В ролях: Евгений Гришковец-Описание: «ОдноврЕмЕнно» — спектакль Евгения Гришковца, премьера которого состоялась в ноябре 1999 года на фестивале NET в РАМТе ( Российский Академический Молодежный Театр).
«Идея этого спектакля пришла ко мне, когда я ехал в автобусе в Калининграде, я как будто увидел его в отражении окна, — рассказывает Евгений Гришковец. – После чего у спектакля довольно долго не было названия. Я действительно не знал, как с ним быть, и он шел у меня под «рабочим» названием «Нескромный спектакль». И когда я ехал сдавать текст для буклета фестиваля NET, мне надо было срочно что-нибудь придумать, и у меня вдруг в голове возникло слово «одновременно». Сразу появилась мысль — «А ведь там два варианта ударения!» Так что спектакль этот с двумя ударениями — «ОдноврЕмЕнно». Вообще, с ним связано много таких моментов, озарений. Так, например, в первом варианте не было в конце падающей звездочки, и два года я играл именно так. Но однажды одна из бумажных звезд упала сама, и после этого я стал каждый раз так заканчивать спектакль».
p.s. Про Миллениум, локомотивы и Мону Лизу
Гришковец блещет своими историями, такими близкими и щемящими сердце, что порой возникает ощущение, что с тобой разговаривает старый школьный друг, с которым не виделся несколько лет и вот вы сидите где-нибудь на кухне и вспоминаете общие события из своего прошлого. Вы не забудете тему с локомотивами и Моной Лизой!!!! А пассаж про пельмени наутро после Миллениума просто великолепен. Вы никогда не будете готовы к его обескураживающей откровенности, с которой он рассказывает свои истории. Приятно удивился, когда увидел что данный диск был выпущен при помощи Александра Мамута, если в нашей стране финансисты ценят Гришковца, значит не все потяряно-Качество видео: DVDRip
Контейнер: AVI
Видео кодек: DivX
Аудио кодек: MP3
Видео: DivX 5 640x480 25.00fps 707Kbps
Аудио: MPEG Audio Layer 3 48000Hz stereo 161Kbps
Видео
Идентификатор : 0
Формат : MPEG-4 Visual
Параметр BVOP формата : Нет
Параметр QPel формата : Нет
Параметр GMC формата : Без точки перехода
Параметр матрицы формата : Default (H.263)
Идентификатор кодека : DX50
Идентификатор кодека/Подсказка : DivX 5
Продолжительность : 1 ч. 50 м.
Битрейт : 707 Кбит/сек
Ширина : 640 пикселей
Высота : 480 пикселей
Соотношение сторон : 4:3
Частота кадров : 25,000 кадров/сек
Цветовое пространство : YUV
Субдискретизация насыщенности : 4:2:0
Битовая глубина : 8 бит
Тип развёртки : Прогрессивная
Метод сжатия : С потерями
Бит/(Пиксели*Кадры) : 0.092
Размер потока : 560 Мбайт (80%)
Библиотека кодирования : DivX 5.2.1 (WaffleDay) (UTC 2004-09-08)
Аудио
Идентификатор : 1
Формат : MPEG Audio
Версия формата : Version 1
Профиль формата : Layer 3
Режим : Joint stereo
Расширение режима : MS Stereo
Идентификатор кодека : 55
Идентификатор кодека/Подсказка : MP3
Продолжительность : 1 ч. 50 м.
Вид битрейта : Переменный
Битрейт : 160 Кбит/сек
Каналы : 2 канала
Частота : 48,0 КГц
Метод сжатия : С потерями
Размер потока : 128 Мбайт (18%)
Выравнивание : Соединение по промежуткам
Продолжительность промежутка : 24 мс. (0,60 видеокадр)
Время предзагрузки промежутка : 490 мс.
Библиотека кодирования : LAME3.96r
Настройки программы : -m j -V 4 -q 2 -lowpass 18 --abr 160
Download / Скачать

Хотите скачать бесплатно? Зарегистрируйтесь на сайте (ссылка на регистрацию). Pirat.ca - самый быстрый торрент трекер в рунете!

Как скачивать  ·   Что такое торрент  ·   Рейтинг и ограничения

Показать сообщения:    
Ответить на тему

Текущее время: Сегодня 08:08

Часовой пояс: GMT + 4



Вы не можете начинать темы
Вы не можете отвечать на сообщения
Вы не можете редактировать свои сообщения
Вы не можете удалять свои сообщения
Вы не можете голосовать в опросах
Вы не можете прикреплять файлы к сообщениям
Вы не можете скачивать файлы

▼ Вниз