ML
     
  Уважаемый Гость!
Вы можете поддержать проект и зарегистрироваться у наших партнеров - онлайн-стратегия MyLands. При регистрации в игре Вы получите код, который сможете активировать после регистрации на pirat.ca и получить 1000 дублонов.

Ваш код:
ee1288b6f7c09d9d2cb2a0f972aba30460ce9333
 
     

Евгений Гришковец - По По (2008) (Евгений Гришковец) [Спектакль, DVDRip]

Ответить на тему
 
Автор
Сообщение

Пост 27-Апр-2014 22:32

[Q] 

yasheroff

Морской Волк

-Евгений Гришковец - По По (2008) -- Страна: Россия
Жанр: Спектакль
Год выпуска: 2008 г.
Продолжительность: 01:49:37
Перевод: Не требуется
Оригинальный аудиопоток: русский
Cубтитры: отсутствуют
Режиссер: Евгений Гришковец-В ролях: Евгений Гришковец Александр Цекало-Описание: Перед премьерой Евгений Гришковец хотел собрать пресс-конференцию и объяснить, что это за «По По». Но что объяснять, когда были уже «Осада» в МХТ и «Титаник» — такие же реконструкции старых спектаклей кемеровской «Ложи»; «По По» он уже ставил в Риге, потом спектакль привозили в Москву. Только там играли малоизвестные артисты — теперь он сам играет, вместе с Александром Цекало. Что такое «По По» — понятно: два человека рассказывают друг другу истории Эдгара По, будто эти истории произошли с их знакомыми, будто такое происходило и с ними. Гришковец хотел объяснить другое. Скорее даже не объяснить, а извиниться — за некоторую легковесность этого спектакля, за то, что это не «высказывание» (так он называет свои монологи). Хотел — но передумал. И был прав.
Когда-то в «Ложе» поняли, что книжки — будь то греческие мифы в «Осаде» или рассказы По - общий кирпич в основании разных мировосприятий. Поднять этот кирпич — значит докопаться до пласта объединяющих нас всех вещей. Мол, мы разные — но мы читали одни книжки. Давайте вместе их припомним — и, может быть, почувствуем родство. Тогда, в Кемерове, вряд ли Гришковец и его друзья затевали национально-объединительный союз, но театр, который они там изобрели, человеческий театр про понятные всем вещи, его Гришковец вывез из Кемерова внутри себя и далее только развивал. Играя «Как я съел собаку», Гришковец копал туда же, в подкорку зрителей, — только теперь и глубже, и мощней. На смену книжкам пришли универсальные чувства и переживания, а самым острым чувством была растерянность перед распавшейся связью времен.
Собственно, эту связь он с тех пор, как умел, налаживал, подбирая коды и ключи к зрительским подкоркам, объединяя себя с публикой и зрителей между собой в почти что экстатическом процессе.
Конечно, он первый понимает, что рассказы По - не самая всесильная отмычка к мозгам. На По братания не построишь. Зато — покуда зреет новый монолог — из По возможно сладить элегантную вещицу. Как говорит сам Гришковец, «светский спектакль». Но вот ведь и то понимает Гришковец, что играть ему нужно самому. Но он-то думает — нужно по той причине, что он светская фигура. На самом деле потому, что он и сам уже отмычка. Ведь даже в таком необязательном спектакле, как «По По», в иные моменты возникает старое… Как бы назвать его? Возможно — чувство локтя. Мы все сидели на одном горшке. Читали одни книжки. Любили Гришковца.
Елена Ковальская, 7.02.2006 "Афиша".-Качество видео: DVDRip
Контейнер: AVI
Стандарт разрешения: 480p
Видео кодек: DivX
Аудио кодек: MP3
Видео: 640x480 (1.33:1), 25 fps, DivX Codec 5.x or 6.x ~734 kbps avg, 0.10 bit/pixel
Аудио: 48 kHz, MPEG Layer 3, 1 ch, ~64.00 kbps avg
Видео
Идентификатор : 0
Формат : MPEG-4 Visual
Параметр BVOP формата : 1
Параметр QPel формата : Нет
Параметр GMC формата : Без точки перехода
Параметр матрицы формата : Default (H.263)
Режим смешивания : Сжатый битовый поток
Идентификатор кодека : DX50
Идентификатор кодека/Подсказка : DivX 5
Продолжительность : 1 ч. 49 м.
Битрейт : 734 Кбит/сек
Ширина : 640 пикселей
Высота : 480 пикселей
Соотношение сторон : 4:3
Частота кадров : 25,000 кадров/сек
Цветовое пространство : YUV
Субдискретизация насыщенности : 4:2:0
Битовая глубина : 8 бит
Тип развёртки : Прогрессивная
Метод сжатия : С потерями
Бит/(Пиксели*Кадры) : 0.096
Размер потока : 576 Мбайт (91%)
Библиотека кодирования : DivX 6.8.0 (UTC 2007-12-04)
Аудио
Идентификатор : 1
Формат : MPEG Audio
Версия формата : Version 1
Профиль формата : Layer 3
Идентификатор кодека : 55
Идентификатор кодека/Подсказка : MP3
Продолжительность : 1 ч. 49 м.
Вид битрейта : Постоянный
Битрейт : 64,0 Кбит/сек
Каналы : 1 канал
Частота : 48,0 КГц
Метод сжатия : С потерями
Размер потока : 50,2 Мбайт (8%)
Выравнивание : Разделение по промежуткам
Продолжительность промежутка : 40 мс. (1,00 видеокадр)
Время предзагрузки промежутка : 500 мс.
Download / Скачать

Хотите скачать бесплатно? Зарегистрируйтесь на сайте (ссылка на регистрацию). Pirat.ca - самый быстрый торрент трекер в рунете!

Как скачивать  ·   Что такое торрент  ·   Рейтинг и ограничения

Показать сообщения:    
Ответить на тему

Текущее время: Сегодня 18:18

Часовой пояс: GMT + 4



Вы не можете начинать темы
Вы не можете отвечать на сообщения
Вы не можете редактировать свои сообщения
Вы не можете удалять свои сообщения
Вы не можете голосовать в опросах
Вы не можете прикреплять файлы к сообщениям
Вы не можете скачивать файлы

▼ Вниз