ML
     
  Уважаемый Гость!
Вы можете поддержать проект и зарегистрироваться у наших партнеров - онлайн-стратегия MyLands. При регистрации в игре Вы получите код, который сможете активировать после регистрации на pirat.ca и получить 1000 дублонов.

Ваш код:
5af7de75d3db09b6a37bc8bab71b0e87ccde73d6
 
     

Евгений Гришковец - Титаник (2007) (Евгений Гришковец) [Спектакль, DVDRip]

Ответить на тему
 
Автор
Сообщение

Пост 27-Апр-2014 22:39

[Q] 

yasheroff

Морской Волк

-Евгений Гришковец - Титаник (2007) -- Страна: Россия
Жанр: Спектакль
Год выпуска: 2007 г.
Продолжительность: 01:31:27
Перевод: Не требуется
Оригинальный аудиопоток: русский
Cубтитры: отсутствуют
Режиссер: Евгений Гришковец-В ролях: Евгений Гришковец, Борис Репетур, Светлана Мочалина, Павел Колесников.-Описание: Наш “Титаник” это очень трогательная, забавная и нежная история, сочиненная в маленьком театре в маленьком городе о большом-большом мире. И о наших ощущениях этого мира в то самое время, то есть в 1992. Мы очень веселились и шалили, когда сочиняли этот текст. У нас было много иллюзий, а самое главное - у нас было много надежды. Не осталось зафиксированного текста, не осталось видеозаписи этого спектакля. Мы постарались подробно вспомнить его и восстановит наш спектакль именно в том виде, каким он был 10 лет назад. И как только мы его восстановили, стало сразу ясно, куда подевались те надежды, и во что мы превратились за эти 10 лет. Мы хотим играть скромную историю, наполненную самым нежным постмодернизмом, который в 1992 году даже не осознавал, что им является. Мы постараемся сами порадоваться и порадовать всех остальных, которые помнят то время как счастливое для себя и наполненное надеждами. Не более, но и не менее. Кстати, название “Титаник” мы понимаем как маленький Титан”.-Качество видео: DVDRip
Контейнер: AVI
Видео кодек: DivX
Аудио кодек: MP3
Видео: 688x560 (1.23:1), 25 fps, DivX Codec 5.2.1 alpha ~1091 kbps avg
Аудио: 44.100 kHz, MPEG Layer 3, 2 ch, ~128.00 kbps avg
Видео
Идентификатор : 0
Формат : MPEG-4 Visual
Параметр BVOP формата : 1
Параметр QPel формата : Нет
Параметр GMC формата : Без точки перехода
Параметр матрицы формата : Default (H.263)
Режим смешивания : Сжатый битовый поток
Идентификатор кодека : DX50
Идентификатор кодека/Подсказка : DivX 5
Продолжительность : 1 ч. 31 м.
Битрейт : 1098 Кбит/сек
Ширина : 688 пикселей
Высота : 560 пикселей
Соотношение сторон : 1,229
Частота кадров : 25,000 кадров/сек
Цветовое пространство : YUV
Субдискретизация насыщенности : 4:2:0
Битовая глубина : 8 бит
Тип развёртки : Прогрессивная
Метод сжатия : С потерями
Бит/(Пиксели*Кадры) : 0.114
Размер потока : 718 Мбайт (89%)
Заголовок : Video
Библиотека кодирования : DivX 5.2.1 Alpha (UTC 2004-09-08)
Аудио
Идентификатор : 1
Формат : MPEG Audio
Версия формата : Version 1
Профиль формата : Layer 3
Режим : Joint stereo
Расширение режима : MS Stereo
Идентификатор кодека : 55
Идентификатор кодека/Подсказка : MP3
Продолжительность : 1 ч. 31 м.
Вид битрейта : Переменный
Битрейт : 128 Кбит/сек
Каналы : 2 канала
Частота : 44,1 КГц
Метод сжатия : С потерями
Размер потока : 79,7 Мбайт (10%)
Выравнивание : Соединение по промежуткам
Продолжительность промежутка : 26 мс. (0,65 видеокадр)
Время предзагрузки промежутка : 365 мс.
Заголовок : Audio
Download / Скачать

Хотите скачать бесплатно? Зарегистрируйтесь на сайте (ссылка на регистрацию). Pirat.ca - самый быстрый торрент трекер в рунете!

Как скачивать  ·   Что такое торрент  ·   Рейтинг и ограничения

Показать сообщения:    
Ответить на тему

Текущее время: Сегодня 14:14

Часовой пояс: GMT + 4



Вы не можете начинать темы
Вы не можете отвечать на сообщения
Вы не можете редактировать свои сообщения
Вы не можете удалять свои сообщения
Вы не можете голосовать в опросах
Вы не можете прикреплять файлы к сообщениям
Вы не можете скачивать файлы

▼ Вниз